Ивановский Торрент трекер
Яндекс.Погода
 

[Цитировать]
HUNTER

Возвращение Буратино«Трогательный мир забытых игрушек» Год выпуска: 2013
Страна: Россия
Жанр: мультфильм, приключения, семейный
Продолжительность: 01:16:36
Перевод: не требуется
Субтитры: отсутствуют- Режиссёр: Екатерина Михайлова- Роли озвучивали: Олег Табаков, Оскар Кучера, Нонна Гришаева, Полина Кутепова, Лидия Аветисян, Ольга Прокофьева, Борис Смолкин, Леонид Якубович, Мадлен Джабраилова, Елена Симонова- Описание: В современной нам Москве Карабас-Барабас, сменив имидж и имя, открывает фабрику-конвейер по производству игрушек. В цехах высотного здания из «сырья» — старых игрушек всех сортов и форм, — производятся две «инновационные» унифицированные модели: робот Зубастик для мальчиков и кукла Гламушка для девочек. Господин Баскара — так сейчас следует называть Карабаса, — уверен, что будущее (и огромные прибыли!) — именно за его моделями.- раздача от группы: - Качество: BDRip
Формат: AVI
Видео кодек: XviD
Аудио кодек: AC3
Видео: 720x400, (1.80:1), 23.976 fps, XviD build 65 ~2265 kbps avg, 0.33 bit/pixel
Аудио: 48 kHz, AC3 Dolby Digital, 3/2 (L,C,R,l,r) + LFE ch, ~448 kbps

MediaInfo

Общее
Полное имя : D:\Im\Возвращение Буратино\Возвращение Буратино.2013.BDRip.avi
Формат : AVI
Формат/Информация : Audio Video Interleave
Размер файла : 1,46 Гбайт
Продолжительность : 1 ч. 16 м.
Общий поток : 2723 Кбит/сек
Программа кодирования : VirtualDubModRus 1.5.10.2 (build 2542/release)
Библиотека кодирования : VirtualDubMod build 2542/release
Видео
Идентификатор : 0
Формат : MPEG-4 Visual
Профиль формата : Advanced Simple@L5
Параметр BVOP формата : 1
Параметр QPel формата : Нет
Параметр GMC формата : Без точки перехода
Параметр матрицы формата : Выборочная
Идентификатор кодека : XVID
Идентификатор кодека/Подсказка : XviD
Продолжительность : 1 ч. 16 м.
Битрейт : 2265 Кбит/сек
Ширина : 720 пикселей
Высота : 400 пикселей
Соотношение сторон : 16:9
Частота кадров : 23,976 кадра/сек
Цветовое пространство : YUV
Субдискретизация насыщенности : 4:2:0
Битовая глубина : 8 бит
Тип развёртки : Прогрессивная
Метод сжатия : С потерями
Бит/(Пиксели*Кадры) : 0.328
Размер потока : 1,21 Гбайт (83%)
Библиотека кодирования : XviD 65
Аудио
Идентификатор : 1
Формат : AC-3
Формат/Информация : Audio Coding 3
Расширение режима : CM (complete main)
Идентификатор кодека : 2000
Продолжительность : 1 ч. 16 м.
Вид битрейта : Постоянный
Битрейт : 448 Кбит/сек
Каналы : 6 каналов
Расположение каналов : Front: L C R, Side: L R, LFE
Частота : 48,0 КГц
Битовая глубина : 16 бит
Метод сжатия : С потерями
Размер потока : 245 Мбайт (16%)
Выравнивание : Разделение по промежуткам
Продолжительность промежутка : 42 мс. (1,00 видеокадр)
Время предзагрузки промежутка : 500 мс.
Показать сообщения:    

Текущее время: 16-Окт 23:16

Часовой пояс: UTC - 1


Вы не можете начинать темы
Вы не можете отвечать на сообщения
Вы не можете редактировать свои сообщения
Вы не можете удалять свои сообщения
Вы не можете голосовать в опросах
Вы не можете прикреплять файлы к сообщениям
Вы не можете скачивать файлы

!ВНИМАНИЕ!
Сайт не предоставляет электронные версии произведений, а занимается лишь коллекционированием и каталогизацией ссылок, присылаемых и публикуемых на форуме нашими читателями. Если вы являетесь правообладателем какого-либо представленного материала и не желаете, чтобы ссылка на него находилась в нашем каталоге, свяжитесь с нами, и мы незамедлительно удалим ее. Файлы для обмена на трекере предоставлены пользователями сайта, и администрация не несет ответственности за их содержание. Просьба не заливать файлы, защищенные авторскими правами, а также файлы нелегального содержания!