Важное объявление!
У Нас Все раздачи мультитрекерные, при нуле пиров в релизах, можете смело вставать на закачку!
 
Автор Сообщение

HUNTER

Стаж:
4 года 11 месяцев
Сообщений:
66019

Репутация: 101

[+] [-]
Вне форума [Профиль] [ЛС]

Военный ныряльщик / Men of Honor / Open Matte
Страна: США
Жанр: Драма, биография
Год выпуска: 2000
Продолжительность: 01:58:22
Перевод: Профессиональный (дублированный)
Cубтитры: нет
Оригинальная аудиодорожка: нет
Режиссер: Джордж Тиллман мл. / George Tillman Jr.
В ролях: Роберт Де Ниро, Кьюба Гудинг мл., Шарлиз Терон, Онжаню Эллис, Хэл Холбрук, Майкл Рапапорт, Пауэрс Бут, Дэвид Кит, Холт МакКэллани, Дэвид Конрад
Описание: Фильм основан на реальных событиях из жизни легендарного водолаза Карла Брашира. Его наставник и старший офицер Билл Сандэй убежден, что неграм нечего делать во флоте, и самыми жестокими и бесчеловечными способами издевается и «обламывает» амбициозного новичка.
Однако ему это не удается, и более того, вскоре он начинает испытывать симпатию к этому чрезвычайно упертому парню, который скорее погибнет, чем покажет слабость. Вместе они пытаются сопротивляться бюрократам из командования ВМФ, которых не устраивает цвет кожи героя.
Карл всегда вызывается добровольцем на выполнение самых опасных секретных спецопераций, связанных с повышенным риском для жизни. Однако судьба приготовила ему куда более страшное испытание, преодолеть которое способен только настоящий герой.
Доп. информация: HDTV и BD имеют разное наполнение кадра http://screenshotcomparison.com/comparison/77623
Сэмпл: http://multi-up.com/1091700
Тип релиза: HDTV 1080i
Контейнер: TS
Видео: AVC, 1920x1080 (16:9), 25.000 fps, 12.4 Mbps (0.238 bit/pixel)
Аудио: MP2, 48.0 KHz, 2 ch, 192 Kbps, CBR (Russian)

MediaInfo

Общее
Идентификатор : 3 (0x3)
Полное имя : N:\Военный ныряльщик.ts
Формат : MPEG-TS
Размер файла : 10,9 Гбайт
Продолжительность : 1 ч. 58 м.
Режим общего битрейта : Переменный
Общий поток : 13,2 Мбит/сек
Видео
Идентификатор : 2141 (0x85D)
Идентификатор меню : 21004 (0x520C)
Формат : AVC
Формат/Информация : Advanced Video Codec
Профиль формата : Main@L4
Параметр CABAC формата : Да
Параметр ReFrames формата : 3 кадра
Идентификатор кодека : 27
Продолжительность : 1 ч. 58 м.
Битрейт : 12,4 Мбит/сек
Ширина : 1920 пикселей
Высота : 1080 пикселей
Соотношение сторон : 16:9
Частота кадров : 25,000 кадров/сек
Стандарт вещания : Component
Цветовое пространство : YUV
Субдискретизация насыщенности : 4:2:0
Битовая глубина : 8 бит
Тип развёртки : Чересстрочная
Метод сохранения типа развёртки : Раздельные поля
Порядок развёртки : Верхнее поле первое
Бит/(Пиксели*Кадры) : 0.238
Размер потока : 10,2 Гбайт (94%)
Цветовой диапазон : Limited
Основные цвета : BT.709
Характеристики трансфера : BT.709
Коэффициенты матрицы : BT.709
Аудио
Идентификатор : 2142 (0x85E)
Идентификатор меню : 21004 (0x520C)
Формат : MPEG Audio
Версия формата : Version 1
Профиль формата : Layer 2
Идентификатор кодека : 4
Продолжительность : 1 ч. 58 м.
Вид битрейта : Постоянный
Битрейт : 192 Кбит/сек
Каналы : 2 канала
Частота : 48,0 КГц
Метод сжатия : С потерями
Задержка видео : 16 мс.
Размер потока : 163 Мбайт (1%)
Язык : Russian

Скриншоты


_________________
Показать сообщения:    

Текущее время: Сегодня 22:53

Часовой пояс: GMT



Вы не можете начинать темы
Вы не можете отвечать на сообщения
Вы не можете редактировать свои сообщения
Вы не можете удалять свои сообщения
Вы не можете голосовать в опросах
Вы не можете прикреплять файлы к сообщениям
Вы не можете скачивать файлы