Важное объявление!
У Нас Все раздачи мультитрекерные, при нуле пиров в релизах, можете смело вставать на закачку!
 
Автор Сообщение

HUNTER

Стаж:
4 года 7 месяцев
Сообщений:
61614

Репутация: 101

[+] [-]
Вне форума [Профиль] [ЛС]

Внутренняя дорога / The Road Within
Страна: США
Жанр: драма, комедия
Год выпуска: 2014
Продолжительность: 01:41:35
Перевод: Одноголосый закадровый datynet
Cубтитры: английские, русские (lext_2009)
Оригинальная аудиодорожка: английский
Режиссер: Грен Уэллс / Gren Wells
В ролях: Зои Кравиц, Роберт Патрик, Дев Патель, Роберт Шиэн, Кира Седжвик, Али Хиллис, Мэтт Риди, Купер Рот, Эрик Мэзени, Росс Галло
Описание:
Сюжет рассказывает о Винсенте — молодом человеке с синдромом Туретта — множественными моторными тиками, периодически проявляющими на лице. У Винсента умерла мать, и он остался на попечении у своего отца, занимающегося политикой. Он переезжает к отцу, который как раз все свое время посвящает политической кампании. В новом доме Винсент знакомится с девушкой-анорексичкой и соседом по комнате. Вместе они решают отправиться в путешествие к океану, дабы отвезти туда прах покойной мамы Винсента.
- || || -Тип релиза: WEB-DL 720p

Контейнер: MKV
Видео: AVC (x264), 1280x692 (1.85:1) at 23,976 fps, 3943 Кbps, 0.186 bpp
Аудио 1: AC3; 192 Kbps; CBR; 2 ch; 48 khz | VO - datynet |
Аудио 2: AC3; 384 Kbps; CBR; 6 ch; 48 khz | Английский |
Формат субтитров: softsub (SRT)

Скриншоты || x264 Info || MediaInfo || Notes

MediaInfo
Код:
General
Unique ID                                : 231677512699220128362711419746377027472 (0xAE4B77463236C0FD9CED155D4C684F90)
Complete name                            : Внутренняя дорога.2014.L1.720p.WEB-DL.x264-PLAYNOW.mkv
Format                                   : Matroska
Format version                           : Version 4 / Version 2
File size                                : 3.27 GiB
Duration                                 : 1h 41mn
Overall bit rate                         : 4 611 Kbps
Movie name                               : The Road Within [2014] [720p] VO
Encoded date                             : UTC 2015-05-11 09:43:40
Writing application                      : mkvmerge v7.8.0 ('River Man') 32bit built on Mar 27 2015 16:18:02
Writing library                          : libebml v1.3.1 + libmatroska v1.4.2
Video
ID                                       : 1
Format                                   : AVC
Format/Info                              : Advanced Video Codec
Format profile                           : High@L3.1
Format settings, CABAC                   : No
Format settings, ReFrames                : 2 frames
Codec ID                                 : V_MPEG4/ISO/AVC
Duration                                 : 1h 41mn
Bit rate                                 : 3 943 Kbps
Width                                    : 1 280 pixels
Height                                   : 692 pixels
Display aspect ratio                     : 1.85:1
Frame rate mode                          : Constant
Frame rate                               : 23.976 fps
Color space                              : YUV
Chroma subsampling                       : 4:2:0
Bit depth                                : 8 bits
Scan type                                : Progressive
Bits/(Pixel*Frame)                       : 0.186
Stream size                              : 2.80 GiB (86%)
Title                                    : profile.php?mode=viewprofile&u=22488948
Language                                 : English
Default                                  : Yes
Forced                                   : No
Color primaries                          : BT.709
Transfer characteristics                 : BT.709
Matrix coefficients                      : BT.709
Color range                              : Limited
Audio #1
ID                                       : 2
Format                                   : AC-3
Format/Info                              : Audio Coding 3
Mode extension                           : CM (complete main)
Format settings, Endianness              : Big
Codec ID                                 : A_AC3
Duration                                 : 1h 41mn
Bit rate mode                            : Constant
Bit rate                                 : 192 Kbps
Channel(s)                               : 2 channels
Channel positions                        : Front: L R
Sampling rate                            : 48.0 KHz
Bit depth                                : 16 bits
Compression mode                         : Lossy
Stream size                              : 140 MiB (4%)
Title                                    : VO [datynet]
Language                                 : Russian
Default                                  : Yes
Forced                                   : No
Audio #2
ID                                       : 3
Format                                   : AC-3
Format/Info                              : Audio Coding 3
Mode extension                           : CM (complete main)
Format settings, Endianness              : Big
Codec ID                                 : A_AC3
Duration                                 : 1h 41mn
Bit rate mode                            : Constant
Bit rate                                 : 384 Kbps
Channel(s)                               : 6 channels
Channel positions                        : Front: L C R, Side: L R, LFE
Sampling rate                            : 48.0 KHz
Bit depth                                : 16 bits
Compression mode                         : Lossy
Stream size                              : 279 MiB (8%)
Language                                 : English
Default                                  : No
Forced                                   : No
Text #1
ID                                       : 4
Format                                   : UTF-8
Codec ID                                 : S_TEXT/UTF8
Codec ID/Info                            : UTF-8 Plain Text
Title                                    : [lext_2009]
Language                                 : Russian
Default                                  : No
Forced                                   : No
Text #2
ID                                       : 5
Format                                   : UTF-8
Codec ID                                 : S_TEXT/UTF8
Codec ID/Info                            : UTF-8 Plain Text
Language                                 : English
Default                                  : No
Forced                                   : No
Menu
00:00:00.000                             : en:Chapter 1
00:08:47.000                             : en:Chapter 2
00:19:21.000                             : en:Chapter 3
00:29:02.000                             : en:Chapter 4
00:38:05.000                             : en:Chapter 5
00:48:57.000                             : en:Chapter 6
01:02:05.000                             : en:Chapter 7
01:11:03.000                             : en:Chapter 8
01:20:33.000                             : en:Chapter 9
01:32:07.000                             : en:Chapter 10

_________________
Показать сообщения:    

Текущее время: Сегодня 07:49

Часовой пояс: GMT



Вы не можете начинать темы
Вы не можете отвечать на сообщения
Вы не можете редактировать свои сообщения
Вы не можете удалять свои сообщения
Вы не можете голосовать в опросах
Вы не можете прикреплять файлы к сообщениям
Вы не можете скачивать файлы
Наши партнеры: интернет магазин Ивановского трикотажа textilla.ru