Ивановский Торрент трекер
Яндекс.Погода
Статистика раздачи
Размер:  12.39 GB   |    Зарегистрирован:  2 года 3 месяца   |    Скачан:  0 раз

Полного источника не было: Никогда

 
     
 
 
 

[Цитировать]
HUNTER

Внутреннее пространство / Innerspace
«Take a trip you'll never forget»
Год выпуска: 1987
Страна: США
Производство: Amblin Entertainment, Guber-Peters Company, Warner Bros. Pictures Co.
Жанр: Фантастика, фэнтези, боевик, триллер, комедия, приключения
Продолжительность: 01:59:48
Перевод 1: Профессиональный (дублированный) | Варус-Видео
Перевод 2: Профессиональный (многоголосый закадровый)
Перевод 3: Профессиональный (многоголосый закадровый) | НТВ
Перевод 4: Профессиональный (многоголосый закадровый)
Перевод 5: Авторский (одноголосый закадровый) | Михалёв №1
Перевод 6: Авторский (одноголосый закадровый) | Михалёв №2
Перевод 7: Авторский (одноголосый закадровый) | Володарский
Перевод 8: Одноголосый закадровый | Попов
Перевод 9: Авторский (одноголосый закадровый) | Гаврилов
Оригинальная аудиодорожка: Английский
Субтитры: Русские, английские
Режиссёр: Джо Данте
В ролях: Деннис Куэйд, Мартин Шорт, Мег Райан, Кевин МакКарти, Фиона Льюис, Вернон Уэллс, Роберт Пикардо, Уэнди Шаал, Гарольд Сильвестр, Уильям Шэллерт и др.
Описание: Американский пилот, лейтенант Так Пендлтон, принимает участие в эксперименте, в процессе которого он должен быть очень сильно уменьшен в размерах и в летательном аппарате, похожем на подлодку, обследовать внутреннее пространство кролика. Но технотеррористы рушат все планы и похищают шприц, в котором находился миниатюризированый Так. По ошибке содержимое шприца попадает в ипохондрика Джека Паттера. Теперь террористы начинают охотиться за ничего не подозревающим Джеком. Единственная, кто ему может помочь, это девушка Така - журналистка Лидия...


Release Group: EbP
Сэмпл
Качество: BDRip 720p
Формат: MKV
Видео: MPEG-4 AVC: ~9933 kbps / 1280x720 / 23.976 fps / 16:9
Аудио: Russian: AC3 / 2.0 / 48 kHz / 192 kbps | Варус-Видео
Аудио: Russian: AC3 / 5.1 / 48 kHz / 384 kbps | Многоголосый закадровый
Аудио: Russian: AC3 / 2.0 / 48 kHz / 192 kbps | НТВ
Аудио: Russian: AC3 / 2.0 / 48 kHz / 192 kbps | Многоголосый закадровый
Аудио: Russian: AC3 / 5.1 / 48 kHz / 640 kbps | Михалёв №1
Аудио: Russian: AC3 / 5.1 / 48 kHz / 640 kbps | Михалёв №2
Аудио: Russian: AC3 / 5.1 / 48 kHz / 640 kbps | Володарский
Аудио: Russian: AC3 / 5.1 / 48 kHz / 640 kbps | Попов
Аудио: Russian: AC3 / 2.0 / 48 kHz / 192 kbps | Гаврилов
Аудио: Ukrainian: AC3 / 2.0 / 48 kHz / 192 kbps | ICTV
Аудио: English: AC3 / 5.1 / 48 kHz / 640 kbps | Оригинальный
Аудио: English: AAC / 2.0 / 48 kHz / 72 kbps | Комментарии

MediaInfoXP

GeneralUnique ID : 213778327076734965683028586040992451013 (0xA0D43549D487218B9DE4995E59CFC9C5)Complete name : F:\Innerspace.1987.720p.BluRay.9xRus.Ukr.Eng.x264-EbP.mkvFormat : MatroskaFormat version : Version 4 / Version 2File size : 12.4 GiBDuration : 1h 59mnOverall bit rate : 14.8 MbpsEncoded date : UTC 2015-08-24 13:54:27Writing application : mkvmerge v8.3.0 ('Over the Horizon') 64bitWriting library : libebml v1.3.1 + libmatroska v1.4.2Attachements : cover.jpgDURATION : 01:55:21.380000000NUMBER_OF_FRAMES : 1237NUMBER_OF_BYTES : 80282_STATISTICS_WRITING_APP : mkvmerge v8.3.0 ('Over the Horizon') 64bit_STATISTICS_WRITING_DATE_UTC : 2015-08-24 13:54:27_STATISTICS_TAGS : BPS DURATION NUMBER_OF_FRAMES NUMBER_OF_BYTES
VideoID : 1Format : AVCFormat/Info : Advanced Video CodecFormat profile : High@L4.1Format settings, CABAC : YesFormat settings, ReFrames : 9 framesCodec ID : V_MPEG4/ISO/AVCDuration : 1h 59mnWidth : 1 280 pixelsHeight : 720 pixelsDisplay aspect ratio : 16:9Frame rate mode : ConstantFrame rate : 23.976 fpsColor space : YUVChroma subsampling : 4:2:0Bit depth : 8 bitsScan type : ProgressiveWriting library : x264 core 142 r2431+42 c69a006 tMod [8-bit@4:2:0 X86_64]Encoding settings : cabac=1 / ref=9 / deblock=1:-3:-3 / analyse=0x3:0x133 / me=umh / subme=10 / psy=1 / fade_compensate=0.00 / psy_rd=1.00:0.00 / mixed_ref=1 / me_range=24 / chroma_me=1 / trellis=2 / 8x8dct=1 / cqm=0 / deadzone=21,11 / fast_pskip=0 / chroma_qp_offset=-2 / threads=12 / lookahead_threads=3 / sliced_threads=0 / nr=0 / decimate=0 / interlaced=0 / bluray_compat=0 / constrained_intra=0 / fgo=0 / bframes=11 / b_pyramid=2 / b_adapt=2 / b_bias=0 / direct=3 / weightb=1 / open_gop=0 / weightp=2 / keyint=250 / keyint_min=23 / scenecut=40 / intra_refresh=0 / rc_lookahead=60 / rc=crf / mbtree=0 / crf=18.0000 / qcomp=0.60 / qpmin=0:0:0 / qpmax=69:69:69 / qpstep=4 / vbv_maxrate=50000 / vbv_bufsize=62500 / crf_max=0.0 / nal_hrd=none / filler=0 / ip_ratio=1.30 / pb_ratio=1.20 / aq=3:0.70 / aq-sensitivity=10.00 / aq-factor=1.00:1.00:1.00 / aq2=0 / aq3=0Default : YesForced : No
Audio #1ID : 2Format : AC-3Format/Info : Audio Coding 3Mode extension : CM (complete main)Format settings, Endianness : BigCodec ID : A_AC3Duration : 1h 59mnBit rate mode : ConstantBit rate : 192 KbpsChannel(s) : 2 channelsChannel positions : Front: L RSampling rate : 48.0 KHzCompression mode : LossyStream size : 165 MiB (1%)Title : Дубляж, Варус-видеоLanguage : RussianDefault : YesForced : No
Audio #2ID : 3Format : AC-3Format/Info : Audio Coding 3Mode extension : CM (complete main)Format settings, Endianness : BigCodec ID : A_AC3Duration : 1h 59mnBit rate mode : ConstantBit rate : 384 KbpsChannel(s) : 6 channelsChannel positions : Front: L C R, Side: L R, LFESampling rate : 48.0 KHzCompression mode : LossyStream size : 329 MiB (3%)Title : Многоголосый закадровыйLanguage : RussianDefault : NoForced : No
Audio #3ID : 4Format : AC-3Format/Info : Audio Coding 3Mode extension : CM (complete main)Format settings, Endianness : BigCodec ID : A_AC3Duration : 1h 59mnBit rate mode : ConstantBit rate : 192 KbpsChannel(s) : 2 channelsChannel positions : Front: L RSampling rate : 48.0 KHzCompression mode : LossyStream size : 165 MiB (1%)Title : Многоголосый закадровый, НТВLanguage : RussianDefault : NoForced : No
Audio #4ID : 5Format : AC-3Format/Info : Audio Coding 3Mode extension : CM (complete main)Format settings, Endianness : BigCodec ID : A_AC3Duration : 1h 59mnBit rate mode : ConstantBit rate : 192 KbpsChannel(s) : 2 channelsChannel positions : Front: L RSampling rate : 48.0 KHzCompression mode : LossyStream size : 165 MiB (1%)Title : Многоголосый закадровыйLanguage : RussianDefault : NoForced : No
Audio #5ID : 6Format : AC-3Format/Info : Audio Coding 3Mode extension : CM (complete main)Format settings, Endianness : BigCodec ID : A_AC3Duration : 1h 59mnBit rate mode : ConstantBit rate : 640 KbpsChannel(s) : 6 channelsChannel positions : Front: L C R, Side: L R, LFESampling rate : 48.0 KHzCompression mode : LossyStream size : 549 MiB (4%)Title : Одноголосый закадровый, А.Михалев №1Language : RussianDefault : NoForced : No
Audio #6ID : 7Format : AC-3Format/Info : Audio Coding 3Mode extension : CM (complete main)Format settings, Endianness : BigCodec ID : A_AC3Duration : 1h 59mnBit rate mode : ConstantBit rate : 640 KbpsChannel(s) : 6 channelsChannel positions : Front: L C R, Side: L R, LFESampling rate : 48.0 KHzCompression mode : LossyStream size : 549 MiB (4%)Title : Одноголосый закадровый, А.Михалев №2Language : RussianDefault : NoForced : No
Audio #7ID : 8Format : AC-3Format/Info : Audio Coding 3Mode extension : CM (complete main)Format settings, Endianness : BigCodec ID : A_AC3Duration : 1h 59mnBit rate mode : ConstantBit rate : 640 KbpsChannel(s) : 6 channelsChannel positions : Front: L C R, Side: L R, LFESampling rate : 48.0 KHzCompression mode : LossyStream size : 549 MiB (4%)Title : Одноголосый закадровый, Л.ВолодарскийLanguage : RussianDefault : NoForced : No
Audio #8ID : 9Format : AC-3Format/Info : Audio Coding 3Mode extension : CM (complete main)Format settings, Endianness : BigCodec ID : A_AC3Duration : 1h 59mnBit rate mode : ConstantBit rate : 640 KbpsChannel(s) : 6 channelsChannel positions : Front: L C R, Side: L R, LFESampling rate : 48.0 KHzCompression mode : LossyStream size : 549 MiB (4%)Title : Одноголосый закадровый, ПоповLanguage : RussianDefault : NoForced : No
Audio #9ID : 10Format : AC-3Format/Info : Audio Coding 3Mode extension : CM (complete main)Format settings, Endianness : BigCodec ID : A_AC3Duration : 1h 59mnBit rate mode : ConstantBit rate : 192 KbpsChannel(s) : 2 channelsChannel positions : Front: L RSampling rate : 48.0 KHzCompression mode : LossyStream size : 165 MiB (1%)Title : Одноголосый закадровый, А.ГавриловLanguage : RussianDefault : NoForced : No
Audio #10ID : 11Format : AC-3Format/Info : Audio Coding 3Mode extension : CM (complete main)Format settings, Endianness : BigCodec ID : A_AC3Duration : 1h 59mnBit rate mode : ConstantBit rate : 192 KbpsChannel(s) : 2 channelsChannel positions : Front: L RSampling rate : 48.0 KHzCompression mode : LossyStream size : 165 MiB (1%)Title : Многоголосый закадровый, ICTVLanguage : UkrainianDefault : NoForced : No
Audio #11ID : 12Format : AC-3Format/Info : Audio Coding 3Mode extension : CM (complete main)Format settings, Endianness : BigCodec ID : A_AC3Duration : 1h 59mnBit rate mode : ConstantBit rate : 640 KbpsChannel(s) : 6 channelsChannel positions : Front: L C R, Side: L R, LFESampling rate : 48.0 KHzCompression mode : LossyStream size : 549 MiB (4%)Language : EnglishDefault : NoForced : No
Audio #12ID : 13Format : AACFormat/Info : Advanced Audio CodecFormat profile : LCCodec ID : A_AACDuration : 1h 59mnChannel(s) : 2 channelsChannel positions : Front: L RSampling rate : 48.0 KHzCompression mode : LossyDelay relative to video : 9msTitle : CommentaryLanguage : EnglishDefault : NoForced : No
Text #1ID : 14Format : UTF-8Codec ID : S_TEXT/UTF8Codec ID/Info : UTF-8 Plain TextLanguage : RussianDefault : NoForced : No
Text #2ID : 15Format : UTF-8Codec ID : S_TEXT/UTF8Codec ID/Info : UTF-8 Plain TextLanguage : EnglishDefault : NoForced : No
Text #3ID : 16Format : UTF-8Codec ID : S_TEXT/UTF8Codec ID/Info : UTF-8 Plain TextTitle : SDHLanguage : EnglishDefault : NoForced : No
Menu00:00:00.000 : en:00:00:00.00000:02:21.058 : en:00:02:21.05800:05:02.511 : en:00:05:02.51100:08:28.174 : en:00:08:28.17400:11:24.058 : en:00:11:24.05800:16:48.633 : en:00:16:48.63300:19:44.558 : en:00:19:44.55800:22:41.944 : en:00:22:41.94400:24:48.654 : en:00:24:48.65400:28:13.567 : en:00:28:13.56700:31:43.485 : en:00:31:43.48500:35:53.818 : en:00:35:53.81800:40:01.190 : en:00:40:01.19000:46:02.301 : en:00:46:02.30100:50:30.361 : en:00:50:30.36100:55:33.121 : en:00:55:33.12100:57:13.972 : en:00:57:13.97201:00:05.644 : en:01:00:05.64401:03:38.940 : en:01:03:38.94001:07:55.321 : en:01:07:55.32101:12:48.239 : en:01:12:48.23901:17:06.914 : en:01:17:06.91401:18:27.536 : en:01:18:27.53601:21:35.933 : en:01:21:35.93301:24:37.781 : en:01:24:37.78101:27:15.897 : en:01:27:15.89701:30:15.368 : en:01:30:15.36801:33:46.454 : en:01:33:46.45401:39:12.655 : en:01:39:12.65501:41:43.097 : en:01:41:43.09701:46:22.293 : en:01:46:22.29301:49:15.048 : en:01:49:15.04801:52:21.026 : en:01:52:21.02601:55:39.891 : en:01:55:39.891

Скриншот с названием фильма

Скриншоты

[iv-torrents.ru].t49430.torrent
Торрент: Зарегистрирован [ 2015-09-14 11:15 ] · 66640C76F32314CD71DBDEA22A69F0CBEE7184BD

Скачать .torrent

Скачать

32 KB

Статус: проверено
Скачан: 0 раз
Размер: 12.39 GB
terms.php
Похожие темы


Показать сообщения:    

Текущее время: 15-Дек 00:57

Часовой пояс: UTC ± 0


Вы не можете начинать темы
Вы не можете отвечать на сообщения
Вы не можете редактировать свои сообщения
Вы не можете удалять свои сообщения
Вы не можете голосовать в опросах
Вы не можете прикреплять файлы к сообщениям
Вы можете скачивать файлы

!ВНИМАНИЕ!
Сайт не предоставляет электронные версии произведений, а занимается лишь коллекционированием и каталогизацией ссылок, присылаемых и публикуемых на форуме нашими читателями. Если вы являетесь правообладателем какого-либо представленного материала и не желаете, чтобы ссылка на него находилась в нашем каталоге, свяжитесь с нами, и мы незамедлительно удалим ее. Файлы для обмена на трекере предоставлены пользователями сайта, и администрация не несет ответственности за их содержание. Просьба не заливать файлы, защищенные авторскими правами, а также файлы нелегального содержания!