Важное объявление!
У Нас Все раздачи мультитрекерные, при нуле пиров в релизах, можете смело вставать на закачку!
 
Автор Сообщение

димитри37

Стаж:
4 года 1 месяц
Сообщений:
1236

Репутация: 127

[+] [-]
Вне форума [Профиль] [ЛС]

Власть убеждений / The Power of Few
Год выпуска: 2013
Производство: США / Steelyard Pictures, iQ Films
Жанр: Боевик, триллер, драма, криминал, детектив
Продолжительность: 01:35:57
Перевод: Любительский (двуголосый закадровый) Петя и Ко
Субтитры: Английские
Навигация по главам: Есть
Режиссер: Леоне Маркуччи
В ролях: Кристофер Уокен, Кристиан Слэйтер, К’Орианка Килчер, Энтони Андерсон, Джесси Брэдфорд, Мун Бладгуд, Никки Уилан, Девон Джирхарт, Джордан Прентис, Джувенил
О фильме: Через двадцать минут жизнь в маленьком городке в Новом Орлеане круто изменится. Как? Вариантов — бесчисленное множество, ведь за эти 20 минут может произойти бесчетное количество событий. Полисмены, шпионы, бродяги, криминальные авторитеты, религиозные лидеры, городские зеваки… — каждый может совершить нечто, что развернет течение истории в другом направлении. Ведь все мы неразрывно связаны друг с другом, даже если не подозреваем об этом! Выбор самого маленького человека может повлиять на самые большие события в мире…
Бюджет: $7 500 000

Качество: BDRip-AVC [The Power Of Few 2013 1080p Bluray Remux AVC DTS HD MA 5 1 HDSpace]
Формат: MKV
Видео: H.264, 1024x576 (16:9), 23,976 fps, 2365 Кbps, 0.167 bit/pixel
Аудио#1: 48 kHz, AC3 Dolby Digital, 3/2 (L,C,R,l,r) + LFE ch, 448.00 kbps | RUS
Аудио#2: 48 kHz, AC3 Dolby Digital, 3/2 (L,C,R,l,r) + LFE ch, 448.00 kbps | ENG

MI

Общее
Уникальный идентификатор : 198435019199220885946114448994559834614 (0x954931CDF7FF56F2B4B3A7FBB44BB9F6)
Полное имя : Vlast'.Ubezhdenij.2013.L2.BDRip.x264.potroks.mkv
Формат : Matroska
Версия формата : Version 4 / Version 2
Размер файла : 2,18 Гбайт
Продолжительность : 1 ч. 35 м.
Общий поток : 3254 Кбит/сек
Название фильма : -=POTROKS=-
Дата кодирования : UTC 2013-06-10 16:50:40
Программа кодирования : mkvmerge v5.9.0 ('On The Loose') built on Dec 15 2012 16:39:58
Библиотека кодирования : libebml v1.3.0 + libmatroska v1.4.0
Видео
Идентификатор : 1
Формат : AVC
Формат/Информация : Advanced Video Codec
Профиль формата : High@L4.1
Параметр CABAC формата : Да
Параметр ReFrames формата : 13 кадров
Идентификатор кодека : V_MPEG4/ISO/AVC
Продолжительность : 1 ч. 35 м.
Битрейт : 2365 Кбит/сек
Ширина : 1024 пикселя
Высота : 576 пикселей
Соотношение сторон : 16:9
Режим частоты кадров : Постоянный
Частота кадров : 23,976 кадра/сек
Цветовое пространство : YUV
Субдискретизация насыщенности : 4:2:0
Битовая глубина : 8 бит
Тип развёртки : Прогрессивная
Бит/(Пиксели*Кадры) : 0.167
Размер потока : 1,54 Гбайт (70%)
Заголовок : The Power of Few
Библиотека кодирования : x264 core 125 r2208 d9d2288
Настройки программы : cabac=1 / ref=13 / deblock=1:-2:-1 / analyse=0x3:0x133 / me=umh / subme=11 / psy=1 / psy_rd=1.05:0.00 / mixed_ref=1 / me_range=32 / chroma_me=1 / trellis=2 / 8x8dct=1 / cqm=0 / deadzone=21,11 / fast_pskip=0 / chroma_qp_offset=-2 / threads=9 / lookahead_threads=1 / sliced_threads=0 / nr=0 / decimate=1 / interlaced=0 / bluray_compat=0 / constrained_intra=0 / bframes=14 / b_pyramid=2 / b_adapt=2 / b_bias=0 / direct=3 / weightb=1 / open_gop=0 / weightp=2 / keyint=240 / keyint_min=23 / scenecut=40 / intra_refresh=0 / rc_lookahead=150 / rc=2pass / mbtree=1 / bitrate=2365 / ratetol=1.0 / qcomp=0.70 / qpmin=0 / qpmax=69 / qpstep=4 / cplxblur=20.0 / qblur=0.5 / vbv_maxrate=20000 / vbv_bufsize=25000 / nal_hrd=none / ip_ratio=1.35 / aq=1:0.80
Язык : English
Default : Да
Forced : Нет
Аудио #1
Идентификатор : 2
Формат : AC-3
Формат/Информация : Audio Coding 3
Расширение режима : CM (complete main)
Параметр Endianness формата : Big
Идентификатор кодека : A_AC3
Продолжительность : 1 ч. 35 м.
Вид битрейта : Постоянный
Битрейт : 448 Кбит/сек
Каналы : 6 каналов
Расположение каналов : Front: L C R, Side: L R, LFE
Частота : 48,0 КГц
Битовая глубина : 16 бит
Метод сжатия : С потерями
Задержка видео : 500 мс.
Размер потока : 308 Мбайт (14%)
Заголовок : DVO | DD 5.1 @ 448 kbps - Петя и Ко
Язык : Russian
Default : Да
Forced : Да
Аудио #2
Идентификатор : 3
Формат : AC-3
Формат/Информация : Audio Coding 3
Расширение режима : CM (complete main)
Параметр Endianness формата : Big
Идентификатор кодека : A_AC3
Продолжительность : 1 ч. 35 м.
Вид битрейта : Постоянный
Битрейт : 448 Кбит/сек
Каналы : 6 каналов
Расположение каналов : Front: L C R, Side: L R, LFE
Частота : 48,0 КГц
Битовая глубина : 16 бит
Метод сжатия : С потерями
Размер потока : 308 Мбайт (14%)
Заголовок : Original | DD 5.1 @ 448 kbps
Язык : English
Default : Нет
Forced : Нет
Текст
Идентификатор : 4
Формат : UTF-8
Идентификатор кодека : S_TEXT/UTF8
Идентификатор кодека/Информация : UTF-8 Plain Text
Язык : English
Default : Нет
Forced : Нет
Меню
00:00:00.000 : en:00:00:00.000
00:15:58.832 : en:00:15:58.832
00:31:52.785 : en:00:31:52.785
00:40:26.966 : en:00:40:26.966
00:50:53.842 : en:00:50:53.842
01:01:29.060 : en:01:01:29.060
01:11:16.063 : en:01:11:16.063
01:31:53.841 : en:01:31:53.841
01:35:55.750 : en:01:35:55.750

Скриншоты



Показать сообщения:    

Текущее время: Сегодня 02:20

Часовой пояс: GMT



Вы не можете начинать темы
Вы не можете отвечать на сообщения
Вы не можете редактировать свои сообщения
Вы не можете удалять свои сообщения
Вы не можете голосовать в опросах
Вы не можете прикреплять файлы к сообщениям
Вы не можете скачивать файлы