Ивановский Торрент трекер
Яндекс.Погода
 

[Цитировать]
HUNTER

Властелин Колец / The Lord of the Rings Выпущено: Германия, США, Новая Зеландия / New Line Cinema
Жанр: боевик, фэнтези, приключения
Год выпуска: 2001, 2002, 2003
Продолжительность: 02:58:24 / 02:59:24 / 03:21:01-Перевод: Профессиональный (полное дублирование)
Cубтитры: русские (форс., полные), английские - отдельно-Режиссер: Питер Джексон
В ролях: Элайджа Вуд (Frodo Baggins), Иэн МакКеллен (Gandalf the Grey), Иэн Холм (Bilbo Baggins), Вигго Мортенсен (Aragorn), Доминик Монахэн (Meriadoc 'Merry' Brandybuck), Билли Бойд (Peregrin 'Pippin' Took), Шон Бин (Boromir), Шон Эстин (Samwise 'Sam' Gamgee), Орландо Блум (Legolas Greenleaf), Хьюго Уивинг (Elrond), Кейт Бланшетт (Galadriel), Джон Рис-Дэвис (Gimli), Лив Тайлер (Arwen), Кристофер Ли (Saruman), Энди Серкис (Gollum, Smeagol / Witch-King, озвучка), Миранда Отто (Eowyn), Бернард Хилл (Theoden), Брэд Дуриф (Grima Wormtongue), Карл Урбан (Eomer), Дэвид Уэнэм (Faramir), Джон Ноубл (Denethor)

Братство Кольца / The Fellowship of the Ring

О фильме: Сказания о Средиземье — это хроника Великой войны за Кольцо, войны, длившейся не одну тысячу лет. Тот, кто владел Кольцом, получал власть над всеми живыми тварями, но был обязан служить злу. Тихая деревня, где живут хоббиты. Волшебник Гэндальф, придя на 111-й день рождения к своему старому другу Бильбо Бэггинсу, начинает вести разговор о кольце, которое Бильбо нашел много лет назад. Это кольцо принадлежало когда-то темному властителю Средиземья Саурону, и оно дает большую власть своему обладателю. Теперь Саурон хочет вернуть себе власть над Средиземьем. Бильбо отдает найденное кольцо своему племяннику Фродо, который пытается научиться справляться с тем страшным могуществом, которое дает ему кольцо…- -Формат: AVI (XviD)
Качество: HDRip [Scarabey]
Видео: 1801 kb/s, 720x304, 23.976 fps, 2.35:1
Аудио #1: AC3, 448 kb/s, 6 ch, 48 КГц, 16 бит [Дубляж]
Аудио #2: AC3, 448 kb/s, 6 ch, 48 КГц, 16 бит [Проф. многоголосый, Позитив] - отдельно
Аудио #3: AC3, 448 kb/s, 6 ch, 48 КГц, 16 бит [Оригинал] - отдельно
Аудио #4: AC3, 192 kb/s, 2 ch, 48 КГц, 16 бит [Автор. одноголосый, Гоблин, Божья Искра beta] - отдельно
Аудио #5: AC3, 192 kb/s, 2 ch, 48 КГц, 16 бит [Автор. одноголосый, Гоблин, Божья Искра 0.5] - отдельно
Аудио #6: AC3, 192 kb/s, 2 ch, 48 КГц, 16 бит [Автор. одноголосый, Гоблин, Божья Искра 1.0] - отдельно
Аудио #7: AC3, 448 kb/s, 6 ch, 48 КГц, 16 бит [Автор. одноголосый, Гоблин, Полный Пэ] - отдельно

Скриншоты

MediaInfo

Формат                                   : AVI
Формат/Информация                        : Audio Video Interleave
Профиль формата                          : OpenDML
Размер файла                             : 2,89 Гбайт
Продолжительность                        : 2 ч. 58 м.
Общий поток                              : 2322 Кбит/сек
Программа кодирования                    : VirtualDubMod 1.5.10.3 | www.virtualdub-fr.org || (build 2550/release)
Библиотека кодирования                   : VirtualDubMod build 2550/release
Видео
Идентификатор                            : 0
Формат                                   : MPEG-4 Visual
Профиль формата                          : Advanced Simple@L5
Параметр BVOP формата                    : 1
Параметр QPel формата                    : Нет
Параметр GMC формата                     : Без точки перехода
Параметр матрицы формата                 : Выборочная
Идентификатор кодека                     : XVID
Идентификатор кодека/Подсказка           : XviD
Продолжительность                        : 2 ч. 58 м.
Битрейт                                  : 1863 Кбит/сек
Ширина                                   : 720 пикселей
Высота                                   : 304 пикселя
Соотношение сторон                       : 2,35:1
Частота кадров                           : 23,976 кадра/сек
Цветовое пространство                    : YUV
Субдискретизация насыщенности            : 4:2:0
Битовая глубина                          : 8 бит
Тип развёртки                            : Прогрессивная
Метод сжатия                             : С потерями
Бит/(Пиксели*Кадры)                      : 0.355
Размер потока                            : 2,32 Гбайт (80%)
Библиотека кодирования                   : XviD 1.2.1 (UTC 2008-12-04)
Аудио
Идентификатор                            : 1
Формат                                   : AC-3
Формат/Информация                        : Audio Coding 3
Расширение режима                        : CM (complete main)
Параметр Endianness формата              : Big
Идентификатор кодека                     : 2000
Продолжительность                        : 2 ч. 58 м.
Вид битрейта                             : Постоянный
Битрейт                                  : 448 Кбит/сек
Каналы                                   : 6 каналов
Расположение каналов                     : Front: L C R, Side: L R, LFE
Частота                                  : 48,0 КГц
Битовая глубина                          : 16 бит
Метод сжатия                             : С потерями
Размер потока                            : 572 Мбайт (19%)
Выравнивание                             : Разделение по промежуткам
Продолжительность промежутка             : 42  мс. (1,00 видеокадр)
Время предзагрузки промежутка            : 500  мс.

Две крепости / The Two Towers

О фильме: Братство распалось, но Кольцо Всевластья должно быть уничтожено. Фродо и Сэм вынуждены доверить свои жизни Голлуму, который взялся провести их к вратам Мордора. Громадная Армия Сарумана приближается: члены братства и их союзники готовы принять бой. Битва за Средиземье продолжается.- -Формат: AVI (XviD)
Качество: HDRip [Scarabey]
Видео: 1791 kb/s, 720x304, 23.976 fps, 2.35:1
Аудио #1: AC3, 448 kb/s, 6 ch, 48 КГц, 16 бит [Дубляж]
Аудио #2: AC3, 448 kb/s, 6 ch, 48 КГц, 16 бит [Проф. многоголосый, Позитив] - отдельно
Аудио #3: AC3, 448 kb/s, 6 ch, 48 КГц, 16 бит [Оригинал] - отдельно
Аудио #4: AC3, 192 kb/s, 2 ch, 48 КГц, 16 бит [Автор. одноголосый, Гоблин, Божья Искра beta] - отдельно
Аудио #5: AC3, 192 kb/s, 2 ch, 48 КГц, 16 бит [Автор. одноголосый, Гоблин, Божья Искра final] - отдельно

Скриншоты

MediaInfo

Формат                                   : AVI
Формат/Информация                        : Audio Video Interleave
Профиль формата                          : OpenDML
Размер файла                             : 2,90 Гбайт
Продолжительность                        : 2 ч. 59 м.
Общий поток                              : 2311 Кбит/сек
Программа кодирования                    : VirtualDubMod 1.5.10.3 | www.virtualdub-fr.org || (build 2550/release)
Библиотека кодирования                   : VirtualDubMod build 2550/release
Видео
Идентификатор                            : 0
Формат                                   : MPEG-4 Visual
Профиль формата                          : Advanced Simple@L5
Параметр BVOP формата                    : 1
Параметр QPel формата                    : Нет
Параметр GMC формата                     : Без точки перехода
Параметр матрицы формата                 : Выборочная
Идентификатор кодека                     : XVID
Идентификатор кодека/Подсказка           : XviD
Продолжительность                        : 2 ч. 59 м.
Битрейт                                  : 1853 Кбит/сек
Ширина                                   : 720 пикселей
Высота                                   : 304 пикселя
Соотношение сторон                       : 2,35:1
Частота кадров                           : 23,976 кадра/сек
Цветовое пространство                    : YUV
Субдискретизация насыщенности            : 4:2:0
Битовая глубина                          : 8 бит
Тип развёртки                            : Прогрессивная
Метод сжатия                             : С потерями
Бит/(Пиксели*Кадры)                      : 0.353
Размер потока                            : 2,32 Гбайт (80%)
Библиотека кодирования                   : XviD 1.2.1 (UTC 2008-12-04)
Аудио
Идентификатор                            : 1
Формат                                   : AC-3
Формат/Информация                        : Audio Coding 3
Расширение режима                        : CM (complete main)
Параметр Endianness формата              : Big
Идентификатор кодека                     : 2000
Продолжительность                        : 2 ч. 59 м.
Вид битрейта                             : Постоянный
Битрейт                                  : 448 Кбит/сек
Каналы                                   : 6 каналов
Расположение каналов                     : Front: L C R, Side: L R, LFE
Частота                                  : 48,0 КГц
Битовая глубина                          : 16 бит
Метод сжатия                             : С потерями
Размер потока                            : 575 Мбайт (19%)
Выравнивание                             : Разделение по промежуткам
Продолжительность промежутка             : 42  мс. (1,00 видеокадр)
Время предзагрузки промежутка            : 500  мс.

Возвращение Короля / The Return Of The King

О фильме: Последняя часть трилогии о Кольце Всевластия и о героях, взявших на себя бремя спасения Средиземья. Повелитель сил Тьмы Саурон направляет свои бесчисленные рати под стены Минас-Тирита, крепости Последней Надежды. Он предвкушает близкую победу, но именно это и мешает ему заметить две крохотные фигурки — хоббитов, приближающихся к Роковой Горе, где им предстоит уничтожить Кольцо Всевластия. Улыбнется ли им счастье?..- -Формат: AVI (XviD)
Качество: HDRip [Scarabey]
Видео: 1545 kb/s, 720x304, 23.976 fps, 2.35:1
Аудио #1: AC3, 448 kb/s, 6 ch, 48 КГц, 16 бит [Дубляж]
Аудио #2: AC3, 448 kb/s, 6 ch, 48 КГц, 16 бит [Проф. многоголосый, Позитив] - отдельно
Аудио #3: AC3, 448 kb/s, 6 ch, 48 КГц, 16 бит [Оригинал] - отдельно
Аудио #4: AC3, 384 kb/s, 6 ch, 48 КГц, 16 бит [Автор. одноголосый, Гоблин, Божья Искра] - отдельно
Аудио #5: AC3, 128 kb/s, 2 ch, 48 КГц, 16 бит [Автор. одноголосый, Гоблин, Полный Пэ] - отдельно

Скриншоты

MediaInfo

Формат                                   : AVI
Формат/Информация                        : Audio Video Interleave
Профиль формата                          : OpenDML
Размер файла                             : 2,89 Гбайт
Продолжительность                        : 3 ч. 21 м.
Общий поток                              : 2060 Кбит/сек
Программа кодирования                    : VirtualDubMod 1.5.10.3 | www.virtualdub-fr.org || (build 2550/release)
Библиотека кодирования                   : VirtualDubMod build 2550/release
Видео
Идентификатор                            : 0
Формат                                   : MPEG-4 Visual
Профиль формата                          : Advanced Simple@L5
Параметр BVOP формата                    : 1
Параметр QPel формата                    : Нет
Параметр GMC формата                     : Без точки перехода
Параметр матрицы формата                 : Выборочная
Идентификатор кодека                     : XVID
Идентификатор кодека/Подсказка           : XviD
Продолжительность                        : 3 ч. 21 м.
Битрейт                                  : 1602 Кбит/сек
Ширина                                   : 720 пикселей
Высота                                   : 304 пикселя
Соотношение сторон                       : 2,35:1
Частота кадров                           : 23,976 кадра/сек
Цветовое пространство                    : YUV
Субдискретизация насыщенности            : 4:2:0
Битовая глубина                          : 8 бит
Тип развёртки                            : Прогрессивная
Метод сжатия                             : С потерями
Бит/(Пиксели*Кадры)                      : 0.305
Размер потока                            : 2,25 Гбайт (78%)
Библиотека кодирования                   : XviD 1.2.1 (UTC 2008-12-04)
Аудио
Идентификатор                            : 1
Формат                                   : AC-3
Формат/Информация                        : Audio Coding 3
Расширение режима                        : CM (complete main)
Параметр Endianness формата              : Big
Идентификатор кодека                     : 2000
Продолжительность                        : 3 ч. 21 м.
Вид битрейта                             : Постоянный
Битрейт                                  : 448 Кбит/сек
Каналы                                   : 6 каналов
Расположение каналов                     : Front: L C R, Side: L R, LFE
Частота                                  : 48,0 КГц
Битовая глубина                          : 16 бит
Метод сжатия                             : С потерями
Размер потока                            : 644 Мбайт (22%)
Выравнивание                             : Разделение по промежуткам
Продолжительность промежутка             : 42  мс. (1,00 видеокадр)
Время предзагрузки промежутка            : 500  мс.
Показать сообщения:    

Текущее время: 24-Окт 10:30

Часовой пояс: UTC - 1


Вы не можете начинать темы
Вы не можете отвечать на сообщения
Вы не можете редактировать свои сообщения
Вы не можете удалять свои сообщения
Вы не можете голосовать в опросах
Вы не можете прикреплять файлы к сообщениям
Вы не можете скачивать файлы

!ВНИМАНИЕ!
Сайт не предоставляет электронные версии произведений, а занимается лишь коллекционированием и каталогизацией ссылок, присылаемых и публикуемых на форуме нашими читателями. Если вы являетесь правообладателем какого-либо представленного материала и не желаете, чтобы ссылка на него находилась в нашем каталоге, свяжитесь с нами, и мы незамедлительно удалим ее. Файлы для обмена на трекере предоставлены пользователями сайта, и администрация не несет ответственности за их содержание. Просьба не заливать файлы, защищенные авторскими правами, а также файлы нелегального содержания!