Важное объявление!
У Нас Все раздачи мультитрекерные, при нуле пиров в релизах, можете смело вставать на закачку!
Статистика раздачи
Размер:     |    Зарегистрирован:     |    Скачан:     |   
Нет
 
     
 
 
Автор Сообщение

Vanya_o3

[Профиль] [ЛС]

The Lord of the Rings: The Fellowship of the RingВластелин колец: Братва и кольцо--
Страна: США , Новая Зеландия
Жанр: Фэнтези, приключения.
Год выпуска: 2001
Продолжительность: 02:58:20
--Перевод:
  • Авторский (одноголосый, закадровый) Дмитрий Пучков (Гоблин) "Божья Искра" v.1.0 #3
  • Авторский (одноголосый, закадровый) Дмитрий Пучков (Гоблин) "Божья Искра" v.0.5 #2
  • Авторский (одноголосый, закадровый) Дмитрий Пучков (Гоблин) "Божья Искра" beta #1
--Режиссер: Питер Джаксон
В ролях: Элайджа Вуд, Орландо Блум, Вигго Мортенсен, Лив Тайлер, Шон Эстин, Шон Бин, Кейт Бланшетт, Билли Бойд, Ян Хольм, Кристофер Ли, Ян МакКеллен, Доминик Монагэн, Джон Рис-Дэвис, Энди Серкис, Хьюго Уивинг.--Описание:В руки карапуза Фёдора Сумкина попадает мегакольцо.
Злобный мордовский упырь, по кличке Саурон, насылает на Фёдора отряд конных эсэсовцев. Но верные друзья Фёдора — майор милиции Пендальф, сельский паренёк Сеня Ганджубас, бомж Агроном, гном Гиви и эльф Лагавас — жёстко настроены обрубить волосатые щупальца мордовской хунте и отнести мегакольцо в мегадомну, где предполагают безо всякой жалости расплавить вредный предмет.
--
Качество видео: DVDRip
Формат видео: AVI | cовместим с бытовыми плеерами
Видео: 704x288 (2.44:1), 23.976 fps, MPEG-4 Low-Motion ~1102 kbps avg, 0.23 bit/pixel
Аудио #1: (RUS) 48 kHz, AC3 Dolby Digital, 2/0 (L,R) ch, ~192 kbps [Авторский (одноголосый, закадровый) Дмитрий Пучков (Гоблин) "Божья Искра" v.1.0]
Аудио #2: (RUS) 48 kHz, AC3 Dolby Digital, 2/0 (L,R) ch, ~192 kbps [Авторский (одноголосый, закадровый) Дмитрий Пучков (Гоблин) "Божья Искра" v.0.5]
Аудио #3: (RUS) 48 kHz, AC3 Dolby Digital, 2/0 (L,R) ch, ~192 kbps [Авторский (одноголосый, закадровый) Дмитрий Пучков (Гоблин) "Божья Искра" beta]--

Источник видео:

Видео взято из этой раздачи: http://rutracker.org/forum/viewtopic.php?t=1728766
+ добавил все три версии смешного перевода Гоблина
--

MediaInfo

General
Complete name : D:\Кино, сериалы\Властелин колец - Братва и кольцо.avi
Format : AVI
Format/Info : Audio Video Interleave
File size : 2.12 GiB
Duration : 2h 58mn
Overall bit rate : 1 699 Kbps
Movie name : Братва и кольцо - релиз подготовил NeoGuyver для rutracker.org
Writing application : VirtualDubMod 1.5.10.2 (build 2542/release)
Copyright : студия "Божья Искра"
Video
ID : 0
Format : MPEG-4 Visual
Codec ID : DIV3
Codec ID/Hint : DivX 3 Low
Duration : 2h 58mn
Bit rate : 1 103 Kbps
Width : 704 pixels
Height : 288 pixels
Display aspect ratio : 2.40:1
Frame rate : 23.976 fps
Color space : YUV
Chroma subsampling : 4:2:0
Bit depth : 8 bits
Compression mode : Lossy
Bits/(Pixel*Frame) : 0.227
Stream size : 1.37 GiB (65%)
Audio #1
ID : 1
Format : AC-3
Format/Info : Audio Coding 3
Mode extension : CM (complete main)
Codec ID : 2000
Duration : 2h 58mn
Bit rate mode : Constant
Bit rate : 192 Kbps
Channel(s) : 2 channels
Channel positions : Front: L R
Sampling rate : 48.0 KHz
Bit depth : 16 bits
Compression mode : Lossy
Stream size : 245 MiB (11%)
Alignment : Split accross interleaves
Interleave, duration : 42 ms (1.00 video frame)
Interleave, preload duration : 500 ms
Title : Авторский (одноголосый, закадровый) Дмитрий Пучков (Гоблин) "Божья Искра" v.1.0 #3
Audio #2
ID : 2
Format : AC-3
Format/Info : Audio Coding 3
Mode extension : CM (complete main)
Codec ID : 2000
Duration : 2h 58mn
Bit rate mode : Constant
Bit rate : 192 Kbps
Channel(s) : 2 channels
Channel positions : Front: L R
Sampling rate : 48.0 KHz
Bit depth : 16 bits
Compression mode : Lossy
Stream size : 245 MiB (11%)
Alignment : Split accross interleaves
Interleave, duration : 42 ms (1.00 video frame)
Interleave, preload duration : 500 ms
Title : Авторский (одноголосый, закадровый) Дмитрий Пучков (Гоблин) "Божья Искра" v.0.5 #2
Audio #3
ID : 3
Format : AC-3
Format/Info : Audio Coding 3
Mode extension : CM (complete main)
Codec ID : 2000
Duration : 2h 58mn
Bit rate mode : Constant
Bit rate : 192 Kbps
Channel(s) : 2 channels
Channel positions : Front: L R
Sampling rate : 48.0 KHz
Bit depth : 16 bits
Compression mode : Lossy
Stream size : 245 MiB (11%)
Alignment : Split accross interleaves
Interleave, duration : 42 ms (1.00 video frame)
Interleave, preload duration : 500 ms
Title : Авторский (одноголосый, закадровый) Дмитрий Пучков (Гоблин) "Божья Искра" beta #1

Скриншот c названием фильма

 
Показать сообщения:    

Текущее время: Сегодня 21:36

Часовой пояс: GMT



Вы не можете начинать темы
Вы не можете отвечать на сообщения
Вы не можете редактировать свои сообщения
Вы не можете удалять свои сообщения
Вы не можете голосовать в опросах
Вы не можете прикреплять файлы к сообщениям
Вы не можете скачивать файлы