Важное объявление!
У Нас Все раздачи мультитрекерные, при нуле пиров в релизах, можете смело вставать на закачку!
 
Автор Сообщение

HUNTER

Стаж:
4 года 10 месяцев
Сообщений:
65473

Репутация: 101

[+] [-]
Вне форума [Профиль] [ЛС]

[Владимир Шамшурин] Твое идеальное свидание (2015)
Страна: Россия
Тематика: Пикап
Тип материала: Видео Семинар
Продолжительность: 3ч,44м,52с
Язык: Русский
Перевод: Не требуется
Год выпуска: 2015
Автор: Владимир Шамшурин
Сайт производителя: muzhskoy-blog.ru/treningi/idealnoye-svidaniye/
Файлы примеров: присутствуют
Формат видео: MPEG-4
Видео: AVC, 1280x720, 4:2:0, 25.000 кадров/сек, 1352 Кбит/сек
Аудио: AAC, 44,1 КГц, ~192 Кбит/сек, 2 канала
Пошаговая схема. Видеокурс. Влюби ее в себя уже на первом свидании!
ЕСЛИ: Ты не знаешь о чем разговаривать на свидании. Ты боишься поцеловать ее, не можешь разрешить себе ее трогать. Не знаешь, как перейти к сексу. Волнуешься. Стараешься изо всех сил ей понравиться. Видишь, что девушке с тобой скучно, не один раз слышал от них – «Давай останемся друзьями» ТО – ПРЯМО СЕЙЧАС ПОСТАВЬ ЖИРНУЮ ТОЧКУ В ТВОИХ РЕДКИХ И НЕУДАЧНЫХ СВИДАНИЯХ. ЗАБУДЬ О НИХ КАК О СТРАШНОМ СНЕ. РАЗ И НАВСЕГДА!
НАУЧИСЬ ПРОВОДИТЬ ЛУЧШИЕ СВИДАНИЯ В СВОЕЙ И В ЕЕ ЖИЗНИ!
Это комплект уникальной информации, которым воспользовались уже более 2500 мужчин теперь, наконец-то в видеоформате, состоящий из следующих пунктов:
- Идеальное место для свидания
- О чем разговаривать на свидании
- Раскачка по эмоциям – девушке никогда не будет скучно с тобой
- Как перейти к поцелуям, если тебе страшно и ты не можешь себе разрешить
- Как показать ей все свои положительные качества и достоинства, и при этом не выглядеть хвастуном
ИСТОРИИ, КОТОРЫЕ ПРОСТО СНОСЯТ КРЫШУ:
Девушка будет смеяться, пугаться, сочувствовать, опять смеяться и возбуждаться…
Как правильно трогать и возбуждать девушку Безотказная схема – «Первое свидание = Секс»
«Кокон» - секретная методика, позволяющая сблизиться всего за один час!

Презентация Курса

https://www.youtube.com/watch?v=zjVQrYk1YgI

Содержание

01 Твое идеальное свидание
02 Истории
03 Как перейти к поцелую
04 Основные ошибки на свидании
05 Фишки
06 Кокон
07 Якорь
08 Проверки перед сексом
09 Тройное свидание
10 Схема идеального свидания
11 Как построить гармоничные отношения
Вспоминаем молодость. Кинестетика
Как влюбить девушку
Как возбудить девушку на свидании
Как соблазнить девушку, которую ты УЖЕ знаешь
Массаж
Соблазнение

MediaInfo

General
Complete name : 7 Якорь.mp4
Format : MPEG-4
Format profile : Base Media / Version 2
Codec ID : mp42
File size : 35.7 MiB
Duration : 3mn 13s
Overall bit rate mode : Variable
Overall bit rate : 1 547 Kbps
Encoded date : UTC 2013-06-25 12:44:57
Tagged date : UTC 2013-06-25 12:44:57
Video
ID : 1
Format : AVC
Format/Info : Advanced Video Codec
Format profile : High@L3.1
Format settings, CABAC : Yes
Format settings, ReFrames : 1 frame
Format settings, GOP : M=1, N=60
Codec ID : avc1
Codec ID/Info : Advanced Video Coding
Duration : 3mn 13s
Bit rate : 1 352 Kbps
Maximum bit rate : 2 334 Kbps
Width : 1 280 pixels
Height : 720 pixels
Display aspect ratio : 16:9
Frame rate mode : Constant
Frame rate : 25.000 fps
Color space : YUV
Chroma subsampling : 4:2:0
Bit depth : 8 bits
Scan type : Progressive
Bits/(Pixel*Frame) : 0.059
Stream size : 31.2 MiB (87%)
Tagged date : UTC 2013-06-25 12:44:59
Audio
ID : 2
Format : AAC
Format/Info : Advanced Audio Codec
Format profile : LC
Codec ID : 40
Duration : 3mn 13s
Bit rate mode : Variable
Bit rate : 192 Kbps
Maximum bit rate : 201 Kbps
Channel(s) : 2 channels
Channel positions : Front: L R
Sampling rate : 44.1 KHz
Compression mode : Lossy
Stream size : 4.44 MiB (12%)
Title : IsoMedia File Produced by Google, 5-11-2011
Encoded date : UTC 2013-06-25 12:44:59
Tagged date : UTC 2013-06-25 12:44:59

Скриншоты


_________________
Показать сообщения:    

Текущее время: Сегодня 03:48

Часовой пояс: GMT



Вы не можете начинать темы
Вы не можете отвечать на сообщения
Вы не можете редактировать свои сообщения
Вы не можете удалять свои сообщения
Вы не можете голосовать в опросах
Вы не можете прикреплять файлы к сообщениям
Вы не можете скачивать файлы