Важное объявление!
У Нас Все раздачи мультитрекерные, при нуле пиров в релизах, можете смело вставать на закачку!
Статистика раздачи
Размер:     |    Зарегистрирован:     |    Скачан:     |   
Нет
 
     
 
 
Автор Сообщение

димитри37

Стаж:
4 года 4 месяца
Сообщений:
1236

Репутация: 127

[+] [-]
Вне форума [Профиль] [ЛС]

Владимир и Людмила Путины развелись
ЧЕТВЕРГ, 6 ИЮНЯ 2013, 22:00
Год выпуска: 2013
Страна: Россия
Жанр: Документальный
Продолжительность: 00:03:17
Перевод: Не требуется
Русские субтитры: нет
Описание: Владимир Путин с супругой Людмилой посетили в Кремлевском дворце балет "Эсмеральда". По его окончании они объявили, что их брак завершен. Президент сообщил, что решение о разводе они приняли совместно.
Качество: HDTV 1080i
Контейнер: TS
Видео кодек: AVC
Аудио кодек: AC3
Видео: 1920x1080 (16:9) 25.000 fps 7 822 Kbps, 0.151 bit/pixel
Аудио: MPEG Audio 48000Hz stereo 192 Кбит/сек

Скриншоты

Скринлист

MI

GeneralID : 1 (0x1)Complete name : C:\Users\MYDIMKA\Pictures\Владимир Путин и Людмила Путина - Мы развелись (2013, Документальный, HDTV 1080i) (MYDIMKA).tsFormat : MPEG-TSFile size : 201 MiBDuration : 3mn 17sOverall bit rate mode : VariableOverall bit rate : 8 496 Kbps
VideoID : 2931 (0xB73)Menu ID : 1 (0x1)Format : AVCFormat/Info : Advanced Video CodecFormat profile : High@L4.0Format settings, CABAC : YesFormat settings, ReFrames : 3 framesFormat settings, GOP : M=3, N=30Codec ID : 27Duration : 3mn 17sBit rate : 7 882 KbpsWidth : 1 920 pixelsHeight : 1 080 pixelsDisplay aspect ratio : 16:9Frame rate : 25.000 fpsColor space : YUVChroma subsampling : 4:2:0Bit depth : 8 bitsScan type : MBAFFBits/(Pixel*Frame) : 0.152Stream size : 186 MiB (93%)
AudioID : 2932 (0xB74)Menu ID : 1 (0x1)Format : MPEG AudioFormat version : Version 1Format profile : Layer 2Mode : Joint stereoMode extension : Intensity Stereo + MS StereoCodec ID : 3Duration : 3mn 17sBit rate mode : ConstantBit rate : 192 KbpsChannel(s) : 2 channelsSampling rate : 48.0 KHzCompression mode : LossyStream size : 4.53 MiB (2%)Language : Russian
TextID : 2934 (0xB76)-888Menu ID : 1 (0x1)Format : Teletext SubtitleLanguage : Russian
MenuID : 2930 (0xB72)Menu ID : 1 (0x1)Duration : 3mn 17sList : 2931 (0xB73) (AVC) / 2932 (0xB74) (MPEG Audio, Russian) / 2934 (0xB76) ()Language : / Russian
-
Показать сообщения:    

Текущее время: Сегодня 18:55

Часовой пояс: GMT



Вы не можете начинать темы
Вы не можете отвечать на сообщения
Вы не можете редактировать свои сообщения
Вы не можете удалять свои сообщения
Вы не можете голосовать в опросах
Вы не можете прикреплять файлы к сообщениям
Вы не можете скачивать файлы