Важное объявление!
У Нас Все раздачи мультитрекерные, при нуле пиров в релизах, можете смело вставать на закачку!
Статистика раздачи
Размер:     |    Зарегистрирован:     |    Скачан:     |   
Нет
 
     
 
 
Автор Сообщение

HUNTER

Стаж:
5 лет
Сообщений:
67958

Репутация: 101

[+] [-]
Вне форума [Профиль] [ЛС]

Владимир Высоцкий. Песни о войне
Год выпуска: 2013
Страна: Россия
Жанр: Документальный, биография, авторская песня
Продолжительность: 00:39:57
Перевод: Не требуется
Режиссёр: Сергей Нейлау
Описание: Высоцкий не любил вспоминать о военном детстве. О том, как на фронт уходили отец и оба дяди. О холоде и голоде, возвращении из эвакуации в пустой, сгоревший дом на Таганке...
Вся эта боль - семьи, соседей, друзей, страны - в его песнях. Фронтовики отказывались верить в то, что Высоцкий не воевал. Говорили, в его стихах детали и ощущения, которые мог знать только человек, лично прошедший войну. Его пронзительные тексты до сих пор актуальны.
Что сам Владимир Семенович говорил о своем творчестве? В фильме - редкие кадры из интервью Высоцкого журналистам разных стран, воспоминания Никиты Высоцкого об отце и, конечно, незабываемые песни о войне.
Запись со спутника Yamal 202
Сэмпл
качество: DVB
формат: MPG
видеокодек: MPEG2
аудиокодек: MP2
Видео: MPEG2, 704х576, 4840 Kbps, 25 fps, Bits/(Pixel*Frame) : 0.477
Аудио: MP2, 192 Kbps, 2 ch, 48 KHz

MediaInfo

E:\Документалистика\Владимир Высоцкий. Песни о войне.mpg
General
Complete name : E:\Документалистика\Владимир Высоцкий. Песни о войне.mpg
Format : MPEG-PS
File size : 1.43 GiB
Duration : 39mn 57s
Overall bit rate mode : Variable
Overall bit rate : 5 118 Kbps
Writing library : (c) 1998-2011 Womble Multimedia, Inc. / MPEG Video Wizard DVD 5.0.1.100 (03/2011) / May 27 2011
Video #224
ID : 224 (0xE0)
Format : MPEG Video
Format version : Version 2
Format profile : Main@Main
Format settings, BVOP : Yes
Format settings, Matrix : Custom
Format settings, GOP : M=3, N=24
Duration : 39mn 57s
Bit rate mode : Variable
Bit rate : 4 840 Kbps
Width : 704 pixels
Height : 576 pixels
Display aspect ratio : 4:3
Frame rate : 25.000 fps
Standard : PAL
Color space : YUV
Chroma subsampling : 4:2:0
Bit depth : 8 bits
Scan type : Interlaced
Scan order : Top Field First
Compression mode : Lossy
Bits/(Pixel*Frame) : 0.477
Stream size : 1.35 GiB (94%)
Writing library : (c) 1998-2011 Womble Multimedia, Inc. / MPEG Video Wizard DVD 5.0.1.100 (03/2011) / May 27 2011
Audio #192
ID : 192 (0xC0)
Format : MPEG Audio
Format version : Version 1
Format profile : Layer 2
Duration : 39mn 57s
Bit rate mode : Constant
Bit rate : 192 Kbps
Channel(s) : 2 channels
Sampling rate : 48.0 KHz
Compression mode : Lossy
Stream size : 54.9 MiB (4%)

Скриншоты


_________________
Показать сообщения:    

Текущее время: Сегодня 04:48

Часовой пояс: GMT



Вы не можете начинать темы
Вы не можете отвечать на сообщения
Вы не можете редактировать свои сообщения
Вы не можете удалять свои сообщения
Вы не можете голосовать в опросах
Вы не можете прикреплять файлы к сообщениям
Вы не можете скачивать файлы