Ивановский Торрент трекер
Яндекс.Погода
Статистика раздачи
Размер:  9.75 GB   |    Зарегистрирован:  3 года 10 месяцев   |    Скачан:  0 раз

Полного источника не было: Никогда

Личеров:  1  [  0 KB/s  ]   Подробная статистика пиров
 
 
 
 

[Цитировать]
HUNTER

-Виталька / Віталька (Сезон 1,2 / 01-40 серии из ~)-Год выпуска: 2012/2013
Страна: Украина
Жанр: Комедия, скетч, тв-шоу
Продолжительность: 40 х ~ 00:15:00
Кол-во выпусков: 01 - 40 из ~
Канал: ТЕТ
Перевод: Не требуется (Русско-Украинский)
Субтитры: Нет-В ролях/Участники: Гарик Бирча, Анна Лев, Вячеслав Комаров, Олеся Чечельницкая
Режиссёр: Иван Ясной, Дмитрий Карпенко, Алексей Даруга-Описание: Виталька живет с мамой, Мариной Францевна, которая видит в своем 30-летнем сыне милого бутузика, который, по-прежнему требует ее заботы и опеки. Самого же Виталька давно интересуют другие представительницы противоположного пола: с длинными ногами, грудастые, а главное - доступны. Виталька буквально помешан на сексе, готов заниматься им и днем и ночью, но ... кто же даст такому невзрачному неудачнику? Девушки любят грубых мачо, а не озабоченных доходяг. И что в таком случае остается делать самоуверенному и открытом для любви Витальке? Он идет в парк, клуб, ресторан, спортзал, и хотя бы к черту, лишь бы познакомиться, склеить, уломать на секс или хотя бы потрогать Машу, Наташу, Свету, Катю, Олю .... Парень не устает мечтать о том, что однажды одна из них скажет ему: "Можно и ко мне". Ради осуществления этой мечты Виталька готов на все. Ну, почти на все ... Ну, не готов совсем ни на что .... Но стоит меняться под изменчивый мир? Может, все же лучше изменить свою точку зрения на него?-Качество: SATRip
Формат: AVI
Видео кодек: XviD
Аудио кодек: MP3
Видео: MPEG4, XviD, 720x400 (16:9), 25.000 fps, 2 141 Kbps (0.297 bit/pixel)
Аудио: MP3, 48.0 KHz, 2 ch, 192 Kbps, CBR-

MediaInfo

Общее
Полное имя : K:\Віталька\Віталька (7).avi
Формат : AVI
Формат/Информация : Audio Video Interleave
Размер файла : 250 Мбайт
Продолжительность : 14 м.
Общий поток : 2343 Кбит/сек
Программа кодирования : VirtualDubModRus 1.5.10.2 (build 2542/release)
Библиотека кодирования : VirtualDubMod build 2542/release
Видео
Идентификатор : 0
Формат : MPEG-4 Visual
Профиль формата : Advanced Simple@L5
Параметр BVOP формата : 2
Параметр QPel формата : Нет
Параметр GMC формата : Без точки перехода
Параметр матрицы формата : Default (H.263)
Режим смешивания : Сжатый битовый поток
Идентификатор кодека : XVID
Идентификатор кодека/Подсказка : XviD
Продолжительность : 14 м.
Битрейт : 2141 Кбит/сек
Ширина : 720 пикселей
Высота : 400 пикселей
Соотношение сторон : 5:4
Соотношение сторон в оригинале : 16:9
Частота кадров : 25,000 кадров/сек
Цветовое пространство : YUV
Субдискретизация насыщенности : 4:2:0
Битовая глубина : 8 бит
Тип развёртки : Прогрессивная
Метод сжатия : С потерями
Бит/(Пиксели*Кадры) : 0.297
Размер потока : 228 Мбайт (91%)
Библиотека кодирования : XviD 64
Аудио
Идентификатор : 1
Формат : MPEG Audio
Версия формата : Version 1
Профиль формата : Layer 3
Режим : Joint stereo
Идентификатор кодека : 55
Идентификатор кодека/Подсказка : MP3
Продолжительность : 14 м.
Вид битрейта : Постоянный
Битрейт : 192 Кбит/сек
Каналы : 2 канала
Частота : 48,0 КГц
Метод сжатия : С потерями
Размер потока : 20,5 Мбайт (8%)
Выравнивание : Разделение по промежуткам
Продолжительность промежутка : 40 мс. (1,00 видеокадр)
Время предзагрузки промежутка : 500 мс.

Список серий

Сезон 1:
Серия 1: Сортзал
Серия 2: Больница
Серия 3: Автосалон
Серия 4: Пикник
Серия 5: Автошкола
Серия 6: Пляж
Серия 7: Ночной клуб
Серия 8: Рыбалка
Серия 9: Милиция
Серия 10: Ресторан
Серия 11: Салон красоты
Серия 12: Супермаркет
Серия 13: Село
Серия 14: SPA cалон
Серия 15: Кино
Серия 16: Турагентство
Серия 17: Работа
Серия 18: Аквапарк
Серия 19: Шоппинг
Серия 20: Свадьба-Новый Год:
Серия 21: Новый год
Серия 22: Новый год
Серия 23: Новый год
Серия 24: Новый год-Сезон 2:
Серия 25: В кино
Серия 26: На охоте
Серия 27: День Рождения
Серия 28: В библиотеке
Серия 29: На гламурной вечеринке
Серия 30: В женском общежитии
Серия 31: В университете
Серия 32: На катке-8 марта:
Серия 33: 8 марта
Серия 34: 8 марта-сезон 2:
Серия 35: В музее
Серия 36: В Буковеле
Серия 37: В стриптиз клубе
Серия 38: В конном клубе
Серия 39: На игровых автоматах
Серия 40: На конкурсе красоты

Внимание! Раздача ведётся путём добавления новых серий

(1) остановить скачивание,
(2) удалить старый торрент у себя из клиента (старые серии удалять не надо),
(3) скачать новый торрент и запустить его у себя в клиенте вместо старого, при этом указать клиенту путь в старую папку куда и должно происходить скачивание новых серий.
Ваш клиент при этом должен произвести хеширование (проверку) старой папки (если не производит сам - помогите ему сделать это), и будет докачивать только те серии которых у вас ещё нет. Старые серии при этом не удаляются, а продолжают раздаваться!
Eсли вы уже удалили старые серии, то предотвратить повторную закачку старых серий можно, отжав галочку в соответсвующих местах при запуске нового торрента. По возможности, желательно не удалять старые серии как можно дольше чтобы релизёр не столько продолжал раздавать старые серии, а смог сконцентрироваться на новых.

Скриншоты

-Раздача обновлена 18.03.13 - добавлены 25-40 серии-
[iv-torrents.ru].t12683.torrent
Торрент: Зарегистрирован [ 2013-11-11 10:53 ] · 25CC4F95D095184E9696C2318C8FB1B6707CC274

Скачать .torrent

Скачать

27 KB

Статус: проверено
Скачан: 0 раз
Размер: 9.75 GB
terms.php
Показать сообщения:    

Текущее время: 21-Сен 20:28

Часовой пояс: UTC - 1


Вы не можете начинать темы
Вы не можете отвечать на сообщения
Вы не можете редактировать свои сообщения
Вы не можете удалять свои сообщения
Вы не можете голосовать в опросах
Вы не можете прикреплять файлы к сообщениям
Вы можете скачивать файлы

!ВНИМАНИЕ!
Сайт не предоставляет электронные версии произведений, а занимается лишь коллекционированием и каталогизацией ссылок, присылаемых и публикуемых на форуме нашими читателями. Если вы являетесь правообладателем какого-либо представленного материала и не желаете, чтобы ссылка на него находилась в нашем каталоге, свяжитесь с нами, и мы незамедлительно удалим ее. Файлы для обмена на трекере предоставлены пользователями сайта, и администрация не несет ответственности за их содержание. Просьба не заливать файлы, защищенные авторскими правами, а также файлы нелегального содержания!