Ивановский Торрент трекер
Яндекс.Погода
 

[Цитировать]
HUNTER

Винчестер 73 / Winchester '73- Год выпуска: 1950
Страна: США
Жанр: вестерн
Продолжительность: 01:32:31
Перевод: Профессиональный (многоголосый закадровый) Universal Pictures
Оригинальная аудиодорожка: Английская
Cубтитры: Английские (полные, для слабослышащих)-Режиссер: Энтони Манн / Anthony Mann
В ролях: Джеймс Стюарт, Шелли Уинтерс, Дэн Дюрьи, Стивен МакНэлли-Описание:
Неувядающий вестерн с легендарным Джеймсом Стюартом в одной из своих лучших ролей, установил стандарты для всех последующих лент этого жанра. Колонист Лин МакАдамс (Стюарт) намерен выследить и поймать убийцу своего отца, а заодно отыскать украденную у него уникальную винтовку, винчестер-73. Во время поисков он сталкивается с разными отчаянными персонажами, включая психованного разбойника с большой дороги (Дэн Дюрьи), аморального контрабандиста (ДжонМакИнтайр), дикого юного вождя индейского племени (Рок Хадсон) и своего собственного брата-убийцу (Стивен МакНэлли). В картине сыграли Шелли Уинтерс - в роли единственной соперницы винтовки, оспаривающей у последней внимание МакАдамса, и Тони Кертис, для которого роль стала одним из первых его появлений на экране.
Захватывающая история о людях (и оружии), завоевавших американский Запад, - один из самых выдающихся фильмов Стюарта и одна из самых знаменитых лент классики вестерна.-За русскую дорожку спасибо larww.
| | Сэмпл-Качество: WEB-DL 1080p (SbR)
Контейнер: MKV
Видео: AVC (x264), 1920x1080 (1.36:1), 23.976 fps, 13515 kbps
Аудио 1: Русский AC3 2.0, 48 kHz, 192 kbps
Аудио 2: Английский EAC3 2.0, 48 kHz, 224 kbps

Скриншоты


MI

General
Unique ID : 221926035595455060691146983999718919912 (0xA6F566554FA18A7DA6B0806362558EE8)
Complete name : Winchester.73.1950.1080p.WEB-DL.DD2.0.H.264-SbR.mkv
Format : Matroska
Format version : Version 2
File size : 9.00 GiB
Duration : 1 h 32 min
Overall bit rate mode : Variable
Overall bit rate : 13.9 Mb/s
Movie name : Winchester '73 / Винчестер 73 (1950) – RuTracker
Encoded date : UTC 2016-09-07 19:29:44
Writing application : mkvmerge v9.4.0 ('Knurl') 64bit
Writing library : libebml v1.3.4 + libmatroska v1.4.5
Cover : Yes
Attachments : cover.jpg
Video
ID : 1
Format : AVC
Format/Info : Advanced Video Codec
Format profile : High@L4
Format settings, CABAC : Yes
Format settings, ReFrames : 4 frames
Codec ID : V_MPEG4/ISO/AVC
Duration : 1 h 32 min
Bit rate mode : Variable
Bit rate : 13.2 Mb/s
Maximum bit rate : 15.0 Mb/s
Width : 1 920 pixels
Height : 1 080 pixels
Display aspect ratio : 16:9
Frame rate mode : Constant
Frame rate : 23.976 (24000/1001) FPS
Color space : YUV
Chroma subsampling : 4:2:0
Bit depth : 8 bits
Scan type : Progressive
Bits/(Pixel*Frame) : 0.266
Stream size : 8.56 GiB (95%)
Title : Winchester.73.1950.1080p.WEB-DL.DD+2.0.H.264-SbR
Writing library : x264 core 148 r2623 d5b2374
Encoding settings : cabac=1 / ref=4 / deblock=1:-1:-1 / analyse=0x3:0x133 / me=umh / subme=9 / psy=1 / psy_rd=1.00:0.15 / mixed_ref=1 / me_range=24 / chroma_me=1 / trellis=2 / 8x8dct=1 / cqm=0 / deadzone=21,11 / fast_pskip=1 / chroma_qp_offset=-3 / threads=34 / lookahead_threads=5 / sliced_threads=0 / nr=150 / decimate=1 / interlaced=0 / bluray_compat=0 / constrained_intra=0 / bframes=8 / b_pyramid=2 / b_adapt=2 / b_bias=0 / direct=3 / weightb=1 / open_gop=0 / weightp=2 / keyint=120 / keyint_min=61 / scenecut=0 / intra_refresh=0 / rc_lookahead=120 / rc=crf / mbtree=1 / crf=18.0 / qcomp=0.60 / qpmin=0 / qpmax=69 / qpstep=4 / vbv_maxrate=15000 / vbv_bufsize=31250 / crf_max=0.0 / nal_hrd=vbr / filler=0 / ip_ratio=1.40 / aq=3:1.00
Language : English
Default : Yes
Forced : No
Color range : Limited
Color primaries : BT.709
Transfer characteristics : BT.709
Matrix coefficients : BT.709
Audio #1
ID : 2
Format : AC-3
Format/Info : Audio Coding 3
Mode extension : CM (complete main)
Format settings, Endianness : Big
Codec ID : A_AC3
Duration : 1 h 32 min
Bit rate mode : Constant
Bit rate : 192 kb/s
Channel(s) : 2 channels
Channel positions : Front: L R
Sampling rate : 48.0 kHz
Frame rate : 31.250 FPS (1536 spf)
Compression mode : Lossy
Stream size : 127 MiB (1%)
Title : MVO – Universal Pictures
Language : Russian
Default : Yes
Forced : No
Audio #2
ID : 3
Format : E-AC-3
Format/Info : Audio Coding 3
Format settings, Endianness : Big
Codec ID : A_EAC3
Duration : 1 h 32 min
Bit rate mode : Constant
Bit rate : 224 kb/s
Channel(s) : 2 channels
Channel positions : Front: L R
Sampling rate : 48.0 kHz
Frame rate : 187.500 FPS (256 spf)
Compression mode : Lossy
Stream size : 148 MiB (2%)
Title : Original
Language : English
Default : No
Forced : No
Text #1
ID : 4
Format : UTF-8
Codec ID : S_TEXT/UTF8
Codec ID/Info : UTF-8 Plain Text
Language : English
Default : No
Forced : No
Text #2
ID : 5
Format : UTF-8
Codec ID : S_TEXT/UTF8
Codec ID/Info : UTF-8 Plain Text
Title : SDH
Language : English
Default : No
Forced : No
Показать сообщения:    

Текущее время: 17-Окт 14:13

Часовой пояс: UTC - 1


Вы не можете начинать темы
Вы не можете отвечать на сообщения
Вы не можете редактировать свои сообщения
Вы не можете удалять свои сообщения
Вы не можете голосовать в опросах
Вы не можете прикреплять файлы к сообщениям
Вы не можете скачивать файлы

!ВНИМАНИЕ!
Сайт не предоставляет электронные версии произведений, а занимается лишь коллекционированием и каталогизацией ссылок, присылаемых и публикуемых на форуме нашими читателями. Если вы являетесь правообладателем какого-либо представленного материала и не желаете, чтобы ссылка на него находилась в нашем каталоге, свяжитесь с нами, и мы незамедлительно удалим ее. Файлы для обмена на трекере предоставлены пользователями сайта, и администрация не несет ответственности за их содержание. Просьба не заливать файлы, защищенные авторскими правами, а также файлы нелегального содержания!