Важное объявление!
У Нас Все раздачи мультитрекерные, при нуле пиров в релизах, можете смело вставать на закачку!
 
Автор Сообщение

HUNTER

Стаж:
4 года 6 месяцев
Сообщений:
61017

Репутация: 101

[+] [-]
Вне форума [Профиль] [ЛС]

Вилли Вонка и шоколадная фабрика / Willy Wonka & the Chocolate Factory-«Enter a world of pure imagination.»-
Страна: США
Жанр: мюзикл, фэнтези, семейный
Год выпуска: 1971
Продолжительность: 01:39:45-Перевод: Профессиональный (многоголосый закадровый)
Cубтитры: Russian, English
Оригинальная аудиодорожка: английская-Режиссер: Мэл Стюарт / Mel Stuart
В ролях: Джин Уайлдер, Джек Альбертсон, Питер Острум, Рой Киннер, Джули Доун Коул, Леонард Стоун, Денис Никерсон, Нора Денни, Пэрис Теммен, Урсула Райт- -Описание: Джин Уайлдер в роли эксцентричного кондитера Вилли Вонка, способный осуществить мечты любого ребенка. В качестве коммерческого приема он спрятал пять золотых билетов в шоколадные батончики и решил испытать честность победителей. Во время тура по стране лакомств необходимо соблюдать твердые правила, иначе не будет самой главной награды — пожизненного обеспечения шоколадом Вилли Вонка. Четыре победителя не удержались, а пятый, Чарли, оказался стойким мальчиком, хотя его пытались уговорить совершить кражу. Чарли взял с собой мудрого советчика — любимого дедушку Джо!-Доп. информация:
  • За исходник и дороги спасибо Opasen
  • Кодирование видео - MиLLIyTKa
-Сэмпл: скачать-Тип релиза: BDRip 720p
Контейнер: MKV-Видео: H264, 1280x720, 6685 kbps at 23.976 fps (2pass, L4.1)
Аудио #1: Russian: 48 kHz, AC3 3/2 (L,R) ch, ~640.00 kbps avg |Многоголосый закадровый, Карусель|
Аудио #2: English: 48 kHz, AC3 3/2 (L,R) ch, ~640.00 kbps avg |Original|
Формат субтитров: softsub (SRT)
-

MediaInfo

GeneralUnique ID : 230952600040911487575197099722593486168 (0xADBFDA521A4B9198B5A88BD0F17F4558)Complete name : E:\Willy.Wonka.and.the.Chocolate.Factory.1971.Blu-Ray.720p.rutracker.mkvFormat : MatroskaFormat version : Version 4 / Version 2File size : 5.55 GiBDuration : 1h 39mnOverall bit rate : 7 968 KbpsMovie name : Willy Wonka & the Chocolate Factory (1971)Encoded date : UTC 2013-04-08 16:16:11Writing application : mkvmerge v6.1.0 ('Old Devil') built on Mar 2 2013 14:32:37Writing library : libebml v1.3.0 + libmatroska v1.4.0
VideoID : 1Format : AVCFormat/Info : Advanced Video CodecFormat profile : High@L4.1Format settings, CABAC : YesFormat settings, ReFrames : 9 framesCodec ID : V_MPEG4/ISO/AVCDuration : 1h 39mnBit rate : 6 685 KbpsWidth : 1 280 pixelsHeight : 720 pixelsDisplay aspect ratio : 16:9Frame rate mode : ConstantFrame rate : 23.976 fpsColor space : YUVChroma subsampling : 4:2:0Bit depth : 8 bitsScan type : ProgressiveBits/(Pixel*Frame) : 0.303Stream size : 4.55 GiB (82%)Title : BDRip 720p / MиLLIyTKa / rutracker.orgWriting library : x264 core 130 r2273 b3065e6Encoding settings : cabac=1 / ref=9 / deblock=1:-1:-1 / analyse=0x3:0x133 / me=umh / subme=10 / psy=1 / psy_rd=1.00:0.15 / mixed_ref=1 / me_range=48 / chroma_me=1 / trellis=2 / 8x8dct=1 / cqm=0 / deadzone=21,11 / fast_pskip=1 / chroma_qp_offset=-3 / threads=6 / lookahead_threads=1 / sliced_threads=0 / nr=0 / decimate=1 / interlaced=0 / bluray_compat=0 / constrained_intra=0 / bframes=8 / b_pyramid=2 / b_adapt=2 / b_bias=0 / direct=3 / weightb=1 / open_gop=0 / weightp=2 / keyint=240 / keyint_min=23 / scenecut=40 / intra_refresh=0 / rc_lookahead=60 / rc=2pass / mbtree=1 / bitrate=6685 / ratetol=1.0 / qcomp=0.60 / qpmin=0 / qpmax=69 / qpstep=4 / cplxblur=20.0 / qblur=0.5 / ip_ratio=1.40 / aq=1:1.00Language : EnglishDefault : YesForced : No
Audio #1ID : 2Format : AC-3Format/Info : Audio Coding 3Mode extension : CM (complete main)Format settings, Endianness : BigCodec ID : A_AC3Duration : 1h 39mnBit rate mode : ConstantBit rate : 640 KbpsChannel(s) : 6 channelsChannel positions : Front: L C R, Side: L R, LFESampling rate : 48.0 KHzBit depth : 16 bitsCompression mode : LossyStream size : 457 MiB (8%)Title : Многоголосый закадровый | КарусельLanguage : RussianDefault : YesForced : No
Audio #2ID : 3Format : AC-3Format/Info : Audio Coding 3Mode extension : CM (complete main)Format settings, Endianness : BigCodec ID : A_AC3Duration : 1h 39mnBit rate mode : ConstantBit rate : 640 KbpsChannel(s) : 6 channelsChannel positions : Front: L C R, Side: L R, LFESampling rate : 48.0 KHzBit depth : 16 bitsCompression mode : LossyStream size : 457 MiB (8%)Title : OriginalLanguage : EnglishDefault : NoForced : No
Text #1ID : 4Format : UTF-8Codec ID : S_TEXT/UTF8Codec ID/Info : UTF-8 Plain TextTitle : FullLanguage : RussianDefault : NoForced : No
Text #2ID : 5Format : UTF-8Codec ID : S_TEXT/UTF8Codec ID/Info : UTF-8 Plain TextTitle : FullLanguage : EnglishDefault : NoForced : No

x264.log

---[NoImage] x264 [info]: using SAR=1/1---[NoImage] x264 [info]: using cpu capabilities: MMX2 SSE2Fast SSSE3 SSE4.2 AVX---[NoImage] x264 [info]: profile High, level 4.1---[NoImage] x264 [info]: cabac=1 / ref=9 / deblock=1:-1:-1 / analyse=0x3:0x133 / me=umh / subme=10 / psy=1 / psy_rd=1.00:0.15 / mixed_ref=1 / me_range=48 / chroma_me=1 / trellis=2 / 8x8dct=1 / cqm=0 / deadzone=21,11 / fast_pskip=1 / chroma_qp_offset=-3 / threads=6 / lookahead_threads=1 / sliced_threads=0 / nr=0 / decimate=1 / interlaced=0 / bluray_compat=0 / constrained_intra=0 / bframes=8 / b_pyramid=2 / b_adapt=2 / b_bias=0 / direct=3 / weightb=1 / open_gop=0 / weightp=2 / keyint=240 / keyint_min=23 / scenecut=40 / intra_refresh=0 / rc_lookahead=60 / rc=2pass / mbtree=1 / bitrate=6685 / ratetol=1.0 / qcomp=0.60 / qpmin=0 / qpmax=69 / qpstep=4 / cplxblur=20.0 / qblur=0.5 / ip_ratio=1.40 / aq=1:1.00---[NoImage] x264 [info]: frame I:972 Avg QP:16.41 size:163392---[NoImage] x264 [info]: frame P:34210 Avg QP:19.04 size: 63010---[NoImage] x264 [info]: frame B:108321 Avg QP:21.14 size: 24810---[NoImage] x264 [info]: consecutive B-frames: 2.4% 4.5% 6.4% 37.9% 10.6% 33.3% 1.7% 2.9% 0.4%---[NoImage] x264 [info]: mb I I16..4: 3.4% 82.5% 14.1%---[NoImage] x264 [info]: mb P I16..4: 0.9% 19.2% 1.8% P16..4: 34.3% 25.0% 15.5% 0.8% 0.2% skip: 2.4%---[NoImage] x264 [info]: mb B I16..4: 0.1% 2.9% 0.2% B16..8: 40.1% 15.6% 4.1% direct:11.4% skip:25.5% L0:43.7% L1:39.9% BI:16.4%---[NoImage] x264 [info]: 8x8 transform intra:88.1% inter:65.4%---[NoImage] x264 [info]: direct mvs spatial:98.7% temporal:1.3%---[NoImage] x264 [info]: coded y,uvDC,uvAC intra: 94.0% 88.1% 73.7% inter: 46.3% 36.4% 14.1%---[NoImage] x264 [info]: i16 v,h,dc,p: 46% 13% 11% 30%---[NoImage] x264 [info]: i8 v,h,dc,ddl,ddr,vr,hd,vl,hu: 11% 9% 7% 9% 13% 13% 12% 12% 13%---[NoImage] x264 [info]: i4 v,h,dc,ddl,ddr,vr,hd,vl,hu: 13% 7% 3% 8% 15% 16% 13% 12% 12%---[NoImage] x264 [info]: i8c dc,h,v,p: 49% 18% 17% 17%---[NoImage] x264 [info]: Weighted P-Frames: Y:6.5% UV:2.3%---[NoImage] x264 [info]: ref P L0: 37.5% 12.9% 19.7% 7.2% 7.0% 4.6% 4.8% 2.7% 3.1% 0.5% 0.0%---[NoImage] x264 [info]: ref B L0: 73.3% 11.6% 5.5% 3.2% 2.5% 2.2% 1.3% 0.5%---[NoImage] x264 [info]: ref B L1: 94.3% 5.7%---[NoImage] x264 [info]: kb/s:6685.54---[NoImage] encoded 143503 frames, 5.10 fps, 6685.54 kb/s

-

Screens

-Source-
-Encode-
-

Screenscompare (HD-DVDRip vs BDRip)

-HD-DVDRip vs BDRip-


-Внимание! Торрент был перезалит 09.04.2013 г. в 18:07 (добавлены чаптеры)

_________________
Показать сообщения:    

Текущее время: Сегодня 15:13

Часовой пояс: GMT



Вы не можете начинать темы
Вы не можете отвечать на сообщения
Вы не можете редактировать свои сообщения
Вы не можете удалять свои сообщения
Вы не можете голосовать в опросах
Вы не можете прикреплять файлы к сообщениям
Вы не можете скачивать файлы
Наши партнеры: интернет магазин Ивановского трикотажа textilla.ru