Важное объявление!
У Нас Все раздачи мультитрекерные, при нуле пиров в релизах, можете смело вставать на закачку!
 
Автор Сообщение

palych74

Стаж:
4 года 5 месяцев
Сообщений:
80

Репутация: 21

[+] [-]
Вне форума [Профиль] [ЛС]

Виктор Цой 50 лет. Олимпийский, 30.09.2012
Жанр: Rock, Metal, Alternative, Folk, Punk
Продолжительность: 2:33:03 + 00:38:46
Год выпуска: 2012
Лейбл: HOLSTyak-video
Описание: В 2012 году Виктору Цою исполнилось бы 50 лет. В честь юбилея музыканта 30 сентября на главной концертной площадке страны, в СК "Олимпийский", состоялось грандиозное шоу, которое подарило всем встречу с кумиром нескольких поколений. Песни Цоя исполнили те артисты, которых можно назвать в некоторой степени его преемниками и на творчество которых бесспорное влияние оказали гениальные в своей простоте песни "КИНО"

Треклист

NOIZE MC
Мы хотим тацевать
FPG
Легенда
Ночь
КНЯZZ
Невесёлая песня
Саша
КУКРЫНИКСЫ
Печаль
Кончится лето
ПОСЛЕ 11
Нам с тобой
Транквилизатор
ПИКНИК
Алюминиевые огурцы
Это не любовь
ОЛЬГА КОРМУХИНА
Стань птицей
Кукушка
НАС НЕТ
Разреши мне
Мама, мы все тяжело больны
ВИКТОР
Попробуй спеть вместе со мной
Стук
Бошетунмай
Когда твоя девушка больна
ZDOB SI ZDOOB
Я смотрю в окно мне дождь помыл стекло
Видели ночь
LOUNA
Дальше действовать будем мы
Перемен!
ПИЛОТ
Когда-то ты был битником
Группа крови
КОРОЛЬ И ШУТ
Следи за собой
Северный флот
В.БУТУСОВ & Ю-ПИТЕР
(поклон оркестра)
Кончится лето
Печаль
Спокойная ночь
Пачка сигарет
Дети минут
Звезда по имени Солнце
БОНУС: (Dj Паша Кореец и/или оркестр "Глобалис")
01 Dj & Оркестр - Группа крови
02 Dj - В наших глазах
03 Оркестр - Пачка сигарет
04 Dj & Оркестр - Перемен!
05 Оркестр - Фильмы
06 Оркестр - Время есть, а денег нет
07 Dj & Оркестр - Восьмиклассница
08 Оркестр - Апрель
09 Оркестр - Война
10 Оркестр - Алюминиевые огурцы
Качество: HDCamRip
Контейнер: MР4
Видео кодек: АVC
Аудио кодек: AC3
Видео: 1280х720, 25 fps, ~6200 kbps
Аудио: 48000 Hz, stereo, 192 kbps

Отчёт MediaInfo / BDInfo

GeneralComplete name : C:\ФАЙЛЫ\СЪЁМКА\Цой 50 лет (30.09.2012)\01 - Noize MC.mp4Format : MPEG-4Format profile : Base Media / Version 2Codec ID : mp42File size : 239 MiBDuration : 5mn 11sOverall bit rate mode : VariableOverall bit rate : 6 444 KbpsEncoded date : UTC 2012-10-03 20:30:49Tagged date : UTC 2012-10-03 20:30:49
VideoID : 2Format : AVCFormat/Info : Advanced Video CodecFormat profile : High@L4.0Format settings, CABAC : YesFormat settings, ReFrames : 2 framesFormat settings, GOP : M=2, N=13Muxing mode : Container profile=High@3.1Codec ID : avc1Codec ID/Info : Advanced Video CodingDuration : 5mn 11sBit rate mode : VariableBit rate : 6 247 KbpsMaximum bit rate : 16.0 MbpsWidth : 1 280 pixelsHeight : 720 pixelsDisplay aspect ratio : 16:9Frame rate mode : ConstantFrame rate : 25.000 fpsColor space : YUVChroma subsampling : 4:2:0Bit depth : 8 bitsScan type : ProgressiveBits/(Pixel*Frame) : 0.271Stream size : 232 MiB (97%)Language : EnglishEncoded date : UTC 2012-10-03 20:30:49Tagged date : UTC 2012-10-03 20:30:49
AudioID : 1Format : AACFormat/Info : Advanced Audio CodecFormat profile : LCCodec ID : 40Duration : 5mn 11sBit rate mode : ConstantBit rate : 192 KbpsChannel(s) : 2 channelsChannel positions : Front: L RSampling rate : 48.0 KHzCompression mode : LossyStream size : 7.13 MiB (3%)Language : EnglishEncoded date : UTC 2012-10-03 20:30:49Tagged date : UTC 2012-10-03 20:30:49

Скриншоты

Показать сообщения:    

Текущее время: Сегодня 12:04

Часовой пояс: GMT



Вы не можете начинать темы
Вы не можете отвечать на сообщения
Вы не можете редактировать свои сообщения
Вы не можете удалять свои сообщения
Вы не можете голосовать в опросах
Вы не можете прикреплять файлы к сообщениям
Вы не можете скачивать файлы
Наши партнеры: интернет магазин Ивановского трикотажа textilla.ru