Важное объявление!
У Нас Все раздачи мультитрекерные, при нуле пиров в релизах, можете смело вставать на закачку!
Статистика раздачи
Размер:     |    Зарегистрирован:     |    Скачан:     |   
Нет
 
     
 
 
Автор Сообщение

HUNTER

Стаж:
5 лет
Сообщений:
68401

Репутация: 101

[+] [-]
Вне форума [Профиль] [ЛС]

Виктор Франкенштейн / Victor Frankenstein
Страна: США
Студия: 20th Century Fox Film Corporation, TSG Entertainment, Moving Picture Company, Davis Entertainment
Жанр: ужасы, фантастика, драма
Год выпуска: 2015
Продолжительность: 01:49:50
Перевод:
Профессиональный (дублированный) | BD EUR - русский
Профессиональный (дублированный) | BD EUR - украинский
Cубтитры: русские (полные, форсированные), украинские (полные, форсированные), английские
Оригинальная аудиодорожка: английский
Режиссер: Пол МакГиган / Paul McGuigan
В ролях: Дэниэл Рэдклифф, Джессика Браун-Финдли, Бронсон Уэбб, Джеймс МакЭвой, Дэниэл Мейс, Спенсер Уидлинг, Робин Пирс, Эндрю Скотт, Каллум Тернер, Ди Ботчер-Описание: Новый взгляд на фантастическую историю Виктора Франкенштейна, на этот раз - с точки зрения его помощника Игоря.
-Тип релиза: BDRip 720p
Контейнер: MKV
Видео: MPEG-4 AVC, 7219 Mбит/с, 1280x534, 23,976 fps
Аудио:
Русский: 48 kHz, DTS, 3/2 (L,C,R,l,r) + LFE ch, ~768 kbps avg
Украинский: 48 kHz, AC3 Dolby Digital, 3/2 (L,C,R,l,r) + LFE ch, ~448 kbps
English: 48 kHz, DTS, 3/2 (L,C,R,l,r) + LFE ch, ~1509.00 kbps avg
Формат субтитров: softsub (SRT)

Скриншоты



Дополнительная информация о раздаче

Исходник
Victor Frankenstein 2015 1080p CEE Blu-ray AVC DTS-HD MA 7.1

MediaInfo / Log.x264

Код:
Уникальный идентификатор                 : 244516726503317651801016975119871987902 (0xB7F43563609B6E95BF5E68B9ABC150BE)
Полное имя                               : D:\L#TNClub\Victor.Frankenstein.2015.BluRay.720p.DTS.x264-L.mkv
Формат                                   : Matroska
Версия формата                           : Version 4 / Version 2
Размер файла                             : 7,63 Гбайт
Продолжительность                        : 1 ч. 49 м.
Общий поток                              : 9948 Кбит/сек
Название фильма                          : Victor.Frankenstein.2015.BluRay.720p.DTS.x264-L
Дата кодирования                         : UTC 2016-03-09 10:03:29
Программа кодирования                    : mkvmerge v7.7.0 ('Six Voices') 32bit built on Feb 28 2015 23:23:00
Библиотека кодирования                   : libebml v1.3.1 + libmatroska v1.4.2
Обложка                                  : Yes
Attachments                              : cover.jpg
Видео
Идентификатор                            : 1
Формат                                   : AVC
Формат/Информация                        : Advanced Video Codec
Профиль формата                          : High@L4.1
Параметр CABAC формата                   : Да
Параметр ReFrames формата                : 12 кадров
Идентификатор кодека                     : V_MPEG4/ISO/AVC
Продолжительность                        : 1 ч. 49 м.
Битрейт                                  : 7219 Кбит/сек
Ширина                                   : 1280 пикселей
Высота                                   : 534 пикселя
Соотношение сторон                       : 2,40:1
Режим частоты кадров                     : Постоянный
Частота кадров                           : 23,976 (24000/1001) кадра/сек
Цветовое пространство                    : YUV
Субдискретизация насыщенности            : 4:2:0
Битовая глубина                          : 8 бит
Тип развёртки                            : Прогрессивная
Бит/(Пиксели*Кадры)                      : 0.440
Размер потока                            : 5,54 Гбайт (73%)
Заголовок                                : Victor.Frankenstein.2015.BluRay.720p.DTS.x264-L
Библиотека кодирования                   : x264 core 148 r2638 7599210
Настройки программы                      : cabac=1 / ref=12 / deblock=1:-2:-1 / analyse=0x3:0x133 / me=umh / subme=10 / psy=1 / psy_rd=1.05:0.10 / mixed_ref=1 / me_range=32 / chroma_me=1 / trellis=2 / 8x8dct=1 / cqm=0 / deadzone=21,11 / fast_pskip=0 / chroma_qp_offset=-4 / threads=6 / lookahead_threads=1 / sliced_threads=0 / nr=0 / decimate=1 / interlaced=0 / bluray_compat=0 / constrained_intra=0 / bframes=7 / b_pyramid=2 / b_adapt=2 / b_bias=0 / direct=1 / weightb=1 / open_gop=0 / weightp=2 / keyint=230 / keyint_min=21 / scenecut=40 / intra_refresh=0 / rc_lookahead=60 / rc=crf / mbtree=0 / crf=16.0 / qcomp=0.70 / qpmin=0 / qpmax=69 / qpstep=4 / vbv_maxrate=50000 / vbv_bufsize=60000 / crf_max=0.0 / nal_hrd=none / filler=0 / ip_ratio=1.35 / pb_ratio=1.25 / aq=2:0.90
Язык                                     : English
Default                                  : Да
Forced                                   : Нет
Аудио #1
Идентификатор                            : 2
Формат                                   : DTS
Формат/Информация                        : Digital Theater Systems
Режим                                    : 16
Параметр Endianness формата              : Big
Идентификатор кодека                     : A_DTS
Продолжительность                        : 1 ч. 49 м.
Вид битрейта                             : Постоянный
Битрейт                                  : 768 Кбит/сек
Каналы                                   : 6 каналов
Расположение каналов                     : Front: L C R, Side: L R, LFE
Частота                                  : 48,0 КГц
Частота кадров                           : 93,750 кадра/сек (512 spf)
Битовая глубина                          : 24 бит
Метод сжатия                             : С потерями
Размер потока                            : 603 Мбайт (8%)
Заголовок                                : DTS 5.1 @ 768 kbps
Язык                                     : Russian
Default                                  : Да
Forced                                   : Нет
Аудио #2
Идентификатор                            : 3
Формат                                   : AC-3
Формат/Информация                        : Audio Coding 3
Расширение режима                        : CM (complete main)
Параметр Endianness формата              : Big
Идентификатор кодека                     : A_AC3
Продолжительность                        : 1 ч. 49 м.
Вид битрейта                             : Постоянный
Битрейт                                  : 448 Кбит/сек
Каналы                                   : 6 каналов
Расположение каналов                     : Front: L C R, Side: L R, LFE
Частота                                  : 48,0 КГц
Частота кадров                           : 31,250 кадров/сек (1536 spf)
Метод сжатия                             : С потерями
Размер потока                            : 352 Мбайт (5%)
Заголовок                                : AC3 5.1 @ 448 kbps
Язык                                     : Ukrainian
Default                                  : Нет
Forced                                   : Нет
Аудио #3
Идентификатор                            : 4
Формат                                   : DTS
Формат/Информация                        : Digital Theater Systems
Профиль формата                          : ES Matrix / Core
Режим                                    : 16
Параметр Endianness формата              : Big
Идентификатор кодека                     : A_DTS
Продолжительность                        : 1 ч. 49 м.
Вид битрейта                             : Постоянный
Битрейт                                  : 1509 Кбит/сек
Каналы                                   : 7 каналов / 6 каналов
Расположение каналов                     : Front: L C R, Side: L R, Back: C, LFE / Front: L C R, Side: L R, LFE
Частота                                  : 48,0 КГц
Частота кадров                           : 93,750 кадра/сек (512 spf)
Битовая глубина                          : 24 бит
Метод сжатия                             : С потерями
Размер потока                            : 1,16 Гбайт (15%)
Заголовок                                : DTS 5.1 @ 1536 kbps
Язык                                     : English
Default                                  : Нет
Forced                                   : Нет
Текст #1
Идентификатор                            : 5
Формат                                   : UTF-8
Идентификатор кодека                     : S_TEXT/UTF8
Идентификатор кодека/Информация          : UTF-8 Plain Text
Продолжительность                        : 1 ч. 44 м.
Битрейт                                  : 0 бит/сек
Count of elements                        : 5
Размер потока                            : 195 байт (0%)
Заголовок                                : Forced, iTunes
Язык                                     : Russian
Default                                  : Да
Forced                                   : Нет
Текст #2
Идентификатор                            : 6
Формат                                   : UTF-8
Идентификатор кодека                     : S_TEXT/UTF8
Идентификатор кодека/Информация          : UTF-8 Plain Text
Продолжительность                        : 1 ч. 49 м.
Битрейт                                  : 78 бит/сек
Count of elements                        : 1165
Размер потока                            : 62,4 Кбайт (0%)
Заголовок                                : iTunes
Язык                                     : Russian
Default                                  : Нет
Forced                                   : Нет
Текст #3
Идентификатор                            : 7
Формат                                   : UTF-8
Идентификатор кодека                     : S_TEXT/UTF8
Идентификатор кодека/Информация          : UTF-8 Plain Text
Продолжительность                        : 1 ч. 48 м.
Битрейт                                  : 1 бит/сек
Count of elements                        : 19
Размер потока                            : 992 байт (0%)
Заголовок                                : Forced, iTunes
Язык                                     : Ukrainian
Default                                  : Нет
Forced                                   : Нет
Текст #4
Идентификатор                            : 8
Формат                                   : UTF-8
Идентификатор кодека                     : S_TEXT/UTF8
Идентификатор кодека/Информация          : UTF-8 Plain Text
Продолжительность                        : 1 ч. 49 м.
Битрейт                                  : 77 бит/сек
Count of elements                        : 1165
Размер потока                            : 61,9 Кбайт (0%)
Заголовок                                : iTunes
Язык                                     : Ukrainian
Default                                  : Нет
Forced                                   : Нет
Текст #5
Идентификатор                            : 9
Формат                                   : UTF-8
Идентификатор кодека                     : S_TEXT/UTF8
Идентификатор кодека/Информация          : UTF-8 Plain Text
Продолжительность                        : 1 ч. 42 м.
Битрейт                                  : 50 бит/сек
Count of elements                        : 1146
Размер потока                            : 38,0 Кбайт (0%)
Заголовок                                : iTunes
Язык                                     : English
Default                                  : Нет
Forced                                   : Нет
Меню
00:00:00.000                             : en:Chapter 1
00:04:07.372                             : en:Chapter 2
00:08:06.903                             : en:Chapter 3
00:11:14.674                             : en:Chapter 4
00:15:20.378                             : en:Chapter 5
00:18:58.554                             : en:Chapter 6
00:22:27.263                             : en:Chapter 7
00:26:06.857                             : en:Chapter 8
00:28:59.237                             : en:Chapter 9
00:32:02.379                             : en:Chapter 10
00:36:01.451                             : en:Chapter 11
00:41:11.427                             : en:Chapter 12
00:46:17.692                             : en:Chapter 13
00:51:48.480                             : en:Chapter 14
00:56:42.691                             : en:Chapter 15
00:59:55.509                             : en:Chapter 16
01:02:37.587                             : en:Chapter 17
01:06:57.180                             : en:Chapter 18
01:11:25.198                             : en:Chapter 19
01:15:14.051                             : en:Chapter 20
01:18:10.352                             : en:Chapter 21
01:21:06.278                             : en:Chapter 22
01:25:20.490                             : en:Chapter 23
01:28:17.542                             : en:Chapter 24
01:33:35.276                             : en:Chapter 25
01:37:51.783                             : en:Chapter 26
01:41:32.920                             : en:Chapter 27
01:43:34.375                             : en:Chapter 28
Код:
x264 [info]: frame I:1551  Avg QP:13.34  size:125280  PSNR Mean Y:49.86 U:53.36 V:54.12 Avg:50.79 Global:50.34
x264 [info]: frame P:33842 Avg QP:14.82  size: 63904  PSNR Mean Y:48.26 U:51.73 V:52.56 Avg:49.19 Global:48.59
x264 [info]: frame B:122604 Avg QP:16.79  size: 29276  PSNR Mean Y:47.08 U:50.60 V:51.77 Avg:48.04 Global:47.40
x264 [info]: consecutive B-frames:  2.6%  2.5%  6.5% 17.1% 17.2% 41.2%  9.8%  3.1%

_________________
Показать сообщения:    

Текущее время: Сегодня 03:54

Часовой пояс: GMT



Вы не можете начинать темы
Вы не можете отвечать на сообщения
Вы не можете редактировать свои сообщения
Вы не можете удалять свои сообщения
Вы не можете голосовать в опросах
Вы не можете прикреплять файлы к сообщениям
Вы не можете скачивать файлы