Ивановский Торрент трекер
Яндекс.Погода
 

[Цитировать]
HUNTER

Викинги / The Vikings
Страна: США
Студия: Brynaprod S.A., Curtleigh Productions Inc.
Жанр: боевик, приключения
Год выпуска: 1958
Продолжительность: 01:56:02
Перевод 1: Профессиональный (дублированный) Советский дубляж
Перевод 2: Профессиональный (многоголосый закадровый)
Перевод 3: Профессиональный (двухголосый закадровый) НТВ+ (Ольга Кузнецова и Александр Котов)
Перевод 4: Профессиональный (двухголосый закадровый) Somewax
Перевод 5: Авторский (одноголосый закадровый) Юрий Живов
Cубтитры: русские, английские
Оригинальная аудиодорожка: английский
Режиссер: Ричард Флайшер / Richard Fleischer
В ролях: Кирк Дуглас, Тони Кертис, Эрнест Боргнайн, Джанет Ли, Джеймс Дональд, Александр Нокс, Максин Одли, Фрэнк Тринг, Эйлин Вэй, Эдрик Коннор

Описание: Тысяча лет назад скандинавские викинги во главе с королем Рагнаром высадились на побережье Англии в надежде захватить вожделенные земли. Движимые жаждой наживы, безжалостные воины опустошали Британские острова, сея смерть и разрушение.
Эйнар и Эрик были сводными братьями. Первый — сын короля викингов Рагнара, бесстрашный и непобедимый воин, которому не было равных в боях. Второй — его слуга и раб, ничего не знающий о своих родителях. Братья не подозревали о своем кровном родстве и с детства ненавидели друг друга. Многолетняя вражда достигла критической точки, когда оба влюбились в Уэльсскую принцессу Моргану…
Сэмпл: http://sendfile.su/1214481
Тип релиза: BDRip 720p
Контейнер: MKV
Видео: MPEG-4 AVC Video / 6836 kbps / 1280x544 / 23.976 fps / 16:9 / High Profile 4.1
Аудио 1: Russian Dolby Digital Audio / 2.0 / 48 kHz / 192 kbps |Советский дубляж|
Аудио 2: Russian Dolby Digital Audio / 2.0 / 48 kHz / 192 kbps |Многоголосый закадровый|
Аудио 3: Russian Dolby Digital Audio / 2.0 / 48 kHz / 192 kbps |Двухголосый закадровый, НТВ+|
Аудио 4: Russian Dolby Digital Audio / 2.0 / 48 kHz / 192 kbps |Двухголосый закадровый, Somewax|
Аудио#5: Russian Dolby Digital Audio / 2.0 / 48 kHz / 192 kbps |Одноголосый закадровый, Юрий Живов|
Аудио#6: English DTS/ 2.0 / 48 kHz / 1536 kbps / 16-bit
Формат субтитров: softsub (SRT)

MediaInfo

Общее
Уникальный идентификатор : 170839264552224691936487825426279334206 (0x8086720E1C81F7C79CC753D10D48813E)
Полное имя : The.Vikings.1958.x264.BDRip.720p.mkv
Формат : Matroska
Версия формата : Version 4 / Version 2
Размер файла : 7,54 Гбайт
Продолжительность : 1 ч. 56 м.
Общий поток : 9308 Кбит/сек
Дата кодирования : UTC 2016-03-15 09:50:24
Программа кодирования : mkvmerge v6.9.1 ('Blue Panther') 32bit built on Apr 18 2014 18:15:44
Библиотека кодирования : libebml v1.3.0 + libmatroska v1.4.1
Видео
Идентификатор : 1
Формат : AVC
Формат/Информация : Advanced Video Codec
Профиль формата : High@L4.1
Параметр CABAC формата : Да
Параметр ReFrames формата : 8 кадров
Идентификатор кодека : V_MPEG4/ISO/AVC
Продолжительность : 1 ч. 56 м.
Битрейт : 6836 Кбит/сек
Ширина : 1280 пикселей
Высота : 544 пикселя
Соотношение сторон : 2,35:1
Режим частоты кадров : Постоянный
Частота кадров : 23,976 кадра/сек
Цветовое пространство : YUV
Субдискретизация насыщенности : 4:2:0
Битовая глубина : 8 бит
Тип развёртки : Прогрессивная
Бит/(Пиксели*Кадры) : 0.409
Размер потока : 5,39 Гбайт (71%)
Библиотека кодирования : x264 core 130 r2273 b3065e6
Настройки программы : cabac=1 / ref=8 / deblock=1:-2:-2 / analyse=0x3:0x113 / me=umh / subme=10 / psy=1 / psy_rd=1.00:0.20 / mixed_ref=1 / me_range=32 / chroma_me=1 / trellis=2 / 8x8dct=1 / cqm=0 / deadzone=21,11 / fast_pskip=0 / chroma_qp_offset=-3 / threads=6 / lookahead_threads=1 / sliced_threads=0 / nr=0 / decimate=0 / interlaced=0 / bluray_compat=0 / constrained_intra=0 / bframes=10 / b_pyramid=2 / b_adapt=2 / b_bias=0 / direct=3 / weightb=1 / open_gop=0 / weightp=2 / keyint=240 / keyint_min=23 / scenecut=40 / intra_refresh=0 / rc_lookahead=40 / rc=2pass / mbtree=0 / bitrate=6836 / ratetol=1.0 / qcomp=0.60 / qpmin=0 / qpmax=69 / qpstep=4 / cplxblur=20.0 / qblur=0.5 / vbv_maxrate=50000 / vbv_bufsize=62500 / nal_hrd=none / ip_ratio=1.40 / pb_ratio=1.30 / aq=1:1.00
Язык : English
Default : Да
Forced : Нет
Аудио #1
Идентификатор : 2
Формат : AC-3
Формат/Информация : Audio Coding 3
Расширение режима : CM (complete main)
Параметр Endianness формата : Big
Идентификатор кодека : A_AC3
Продолжительность : 1 ч. 56 м.
Вид битрейта : Постоянный
Битрейт : 192 Кбит/сек
Каналы : 2 канала
Расположение каналов : Front: L R
Частота : 48,0 КГц
Частота кадров : 31,250 кадров/сек (1536 spf)
Метод сжатия : С потерями
Размер потока : 159 Мбайт (2%)
Заголовок : DUB [USSR}
Язык : Russian
Default : Да
Forced : Нет
Аудио #2
Идентификатор : 3
Формат : AC-3
Формат/Информация : Audio Coding 3
Расширение режима : CM (complete main)
Параметр Endianness формата : Big
Идентификатор кодека : A_AC3
Продолжительность : 1 ч. 56 м.
Вид битрейта : Постоянный
Битрейт : 192 Кбит/сек
Каналы : 2 канала
Расположение каналов : Front: L R
Частота : 48,0 КГц
Частота кадров : 31,250 кадров/сек (1536 spf)
Метод сжатия : С потерями
Размер потока : 159 Мбайт (2%)
Заголовок : MVO
Язык : Russian
Default : Нет
Forced : Нет
Аудио #3
Идентификатор : 4
Формат : AC-3
Формат/Информация : Audio Coding 3
Расширение режима : CM (complete main)
Параметр Endianness формата : Big
Идентификатор кодека : A_AC3
Продолжительность : 1 ч. 56 м.
Вид битрейта : Постоянный
Битрейт : 192 Кбит/сек
Каналы : 2 канала
Расположение каналов : Front: L R
Частота : 48,0 КГц
Частота кадров : 31,250 кадров/сек (1536 spf)
Метод сжатия : С потерями
Размер потока : 159 Мбайт (2%)
Заголовок : DVO NTV
Язык : Russian
Default : Нет
Forced : Нет
Аудио #4
Идентификатор : 5
Формат : AC-3
Формат/Информация : Audio Coding 3
Расширение режима : CM (complete main)
Параметр Endianness формата : Big
Идентификатор кодека : A_AC3
Продолжительность : 1 ч. 56 м.
Вид битрейта : Постоянный
Битрейт : 192 Кбит/сек
Каналы : 2 канала
Расположение каналов : Front: L R
Частота : 48,0 КГц
Частота кадров : 31,250 кадров/сек (1536 spf)
Метод сжатия : С потерями
Размер потока : 159 Мбайт (2%)
Заголовок : DVO Somewax
Язык : Russian
Default : Нет
Forced : Нет
Аудио #5
Идентификатор : 6
Формат : AC-3
Формат/Информация : Audio Coding 3
Расширение режима : CM (complete main)
Параметр Endianness формата : Big
Идентификатор кодека : A_AC3
Продолжительность : 1 ч. 56 м.
Вид битрейта : Постоянный
Битрейт : 192 Кбит/сек
Каналы : 2 канала
Расположение каналов : Front: L R
Частота : 48,0 КГц
Частота кадров : 31,250 кадров/сек (1536 spf)
Метод сжатия : С потерями
Размер потока : 159 Мбайт (2%)
Заголовок : AVO [U.Jivov]
Язык : Russian
Default : Нет
Forced : Нет
Аудио #6
Идентификатор : 7
Формат : DTS
Формат/Информация : Digital Theater Systems
Режим : 16
Параметр Endianness формата : Big
Идентификатор кодека : A_DTS
Продолжительность : 1 ч. 56 м.
Вид битрейта : Постоянный
Битрейт : 1509 Кбит/сек
Каналы : 2 канала
Расположение каналов : Front: L R
Частота : 48,0 КГц
Частота кадров : 93,750 кадра/сек (512 spf)
Битовая глубина : 16 бит
Метод сжатия : С потерями
Размер потока : 1,22 Гбайт (16%)
Заголовок : English
Язык : English
Default : Нет
Forced : Нет
Текст #1
Идентификатор : 8
Формат : UTF-8
Идентификатор кодека : S_TEXT/UTF8
Идентификатор кодека/Информация : UTF-8 Plain Text
Заголовок : Full
Язык : Russian
Default : Нет
Forced : Нет
Текст #2
Идентификатор : 9
Формат : UTF-8
Идентификатор кодека : S_TEXT/UTF8
Идентификатор кодека/Информация : UTF-8 Plain Text
Заголовок : Full
Язык : English
Default : Нет
Forced : Нет
Меню
00:00:00.000 : en:00:00:00.000
00:10:24.457 : en:00:10:24.457
00:35:01.141 : en:00:35:01.141
00:50:05.211 : en:00:50:05.211
01:05:28.300 : en:01:05:28.300
01:16:33.756 : en:01:16:33.756
01:23:15.699 : en:01:23:15.699
01:42:14.670 : en:01:42:14.670

Скриншоты

Показать сообщения:    

Текущее время: 22-Окт 02:02

Часовой пояс: UTC - 1


Вы не можете начинать темы
Вы не можете отвечать на сообщения
Вы не можете редактировать свои сообщения
Вы не можете удалять свои сообщения
Вы не можете голосовать в опросах
Вы не можете прикреплять файлы к сообщениям
Вы не можете скачивать файлы

!ВНИМАНИЕ!
Сайт не предоставляет электронные версии произведений, а занимается лишь коллекционированием и каталогизацией ссылок, присылаемых и публикуемых на форуме нашими читателями. Если вы являетесь правообладателем какого-либо представленного материала и не желаете, чтобы ссылка на него находилась в нашем каталоге, свяжитесь с нами, и мы незамедлительно удалим ее. Файлы для обмена на трекере предоставлены пользователями сайта, и администрация не несет ответственности за их содержание. Просьба не заливать файлы, защищенные авторскими правами, а также файлы нелегального содержания!