Вий (Георгий Кропачев, Константин Ершов) [1967, СССР, ужасы, фэнтези, драма, Blu-ray disc 1080p] [JPN Transfer] Original Rus + Sub Jap :: Ивановский Торрент трекер
Важное объявление!
У Нас Все раздачи мультитрекерные, при нуле пиров в релизах, можете смело вставать на закачку!
Статистика раздачи
Размер:     |    Зарегистрирован:     |    Скачан:     |   
Нет
 
     
 
 
Автор Сообщение

HUNTER

Стаж:
4 года 11 месяцев
Сообщений:
66054

Репутация: 101

[+] [-]
Вне форума [Профиль] [ЛС]

Вий
Страна: СССР
Жанр: ужасы, фэнтези, драма
Год выпуска: 1967
Продолжительность: 01:16:51
Перевод: Не требуется
Cубтитры: японские
Оригинальная аудиодорожка: русский-Режиссер: Георгий Кропачев, Константин Ершов-В ролях: Леонид Куравлёв, Наталья Варлей, Алексей Глазырин, Николай Кутузов, Вадим Захарченко, Петр Вескляров, Владимир Сальников, Дмитрий Капка, Степан Шкурат, Георгий Сочевко
Описание: Студент-философ Хома Брут должен провести несколько ночей у гроба умершей панночки в старой церквушке в далекой деревне. Сможет ли он побороть свой страх, или ему придется столкнуться с нечистой силой?-Тип релиза: Blu-ray disc
Контейнер: BDMV-Видео: MPEG-4 AVC Video 33597 kbps 1080p / 23,976 fps / 16:9 / High Profile 4.1-Аудио: LPCM Audio Russian 1536 kbps 2.0 / 48 kHz / 1536 kbps / 16-bit
Цитата:
Цитата:

спасибо трекеру Bluebird и hdmaniac

BDInfo

DISC INFO:
Disc Title: Вий
Disc Size: 21 445 484 599 bytes
Protection: AACS
BD-Java: No
BDInfo: 0.5.8
PLAYLIST REPORT:
Name: 00000.MPLS
Length: 1:16:51.189 (h:m:s.ms)
Size: 21 340 796 928 bytes
Total Bitrate: 37,02 Mbps
VIDEO:
Codec Bitrate Description
----- ------- -----------
MPEG-4 AVC Video 33597 kbps 1080p / 23,976 fps / 16:9 / High Profile 4.1
AUDIO:
Codec Language Bitrate Description
----- -------- ------- -----------
LPCM Audio Russian 1536 kbps 2.0 / 48 kHz / 1536 kbps / 16-bit
SUBTITLES:
Codec Language Bitrate Description
----- -------- ------- -----------
Presentation Graphics Japanese 46,167 kbps
FILES:
Name Time In Length Size Total Bitrate
---- ------- ------ ---- -------------
00000.M2TS 0:00:00.000 1:16:23.620 21 328 527 360 37 226
00001.M2TS 1:16:23.620 0:00:07.048 1 751 040 1 987
00004.M2TS 1:16:30.669 0:00:18.893 10 119 168 4 285
00002.M2TS 1:16:49.563 0:00:01.626 399 360 1 964
CHAPTERS:
Number Time In Length Avg Video Rate Max 1-Sec Rate Max 1-Sec Time Max 5-Sec Rate Max 5-Sec Time Max 10Sec Rate Max 10Sec Time Avg Frame Size Max Frame Size Max Frame Time
------ ------- ------ -------------- -------------- -------------- -------------- -------------- -------------- -------------- -------------- -------------- --------------
1 0:00:00.000 0:10:03.978 33 865 kbps 48 454 kbps 00:00:00.959 39 820 kbps 00:00:00.959 37 965 kbps 00:00:00.959 176 545 bytes 653 014 bytes 00:00:01.001
2 0:10:03.978 0:11:25.017 33 808 kbps 47 164 kbps 00:15:41.732 40 555 kbps 00:15:41.649 38 365 kbps 00:15:40.773 176 258 bytes 556 418 bytes 00:16:10.135
3 0:21:28.996 0:05:28.369 33 819 kbps 45 445 kbps 00:22:26.219 39 610 kbps 00:24:57.370 37 788 kbps 00:22:26.261 176 315 bytes 552 315 bytes 00:22:26.345
4 0:26:57.365 0:10:38.888 33 862 kbps 44 205 kbps 00:36:22.138 38 904 kbps 00:37:28.871 36 450 kbps 00:37:26.244 176 539 bytes 482 864 bytes 00:27:51.753
5 0:37:36.254 0:08:16.829 33 762 kbps 40 494 kbps 00:40:47.319 36 158 kbps 00:39:49.887 35 355 kbps 00:39:45.800 176 022 bytes 482 400 bytes 00:40:50.281
6 0:45:53.083 0:09:30.319 33 747 kbps 47 237 kbps 00:46:18.650 39 628 kbps 00:46:18.066 36 981 kbps 00:46:18.066 175 943 bytes 520 531 bytes 00:46:17.107
7 0:55:23.403 0:09:51.424 33 809 kbps 45 949 kbps 01:02:21.320 39 147 kbps 01:02:19.944 36 580 kbps 01:03:04.238 176 262 bytes 479 151 bytes 01:02:19.986
8 1:05:14.827 0:11:34.735 32 467 kbps 46 055 kbps 01:10:45.616 37 431 kbps 01:10:43.614 35 485 kbps 01:09:02.721 169 286 bytes 504 910 bytes 01:15:14.468
9 1:16:49.563 0:00:01.626 27 kbps 30 kbps 01:16:49.563 0 kbps 00:00:00.000 0 kbps 00:00:00.000 150 bytes 657 bytes 01:16:50.564

Скриншоты


_________________
Показать сообщения:    

Текущее время: Сегодня 08:58

Часовой пояс: GMT



Вы не можете начинать темы
Вы не можете отвечать на сообщения
Вы не можете редактировать свои сообщения
Вы не можете удалять свои сообщения
Вы не можете голосовать в опросах
Вы не можете прикреплять файлы к сообщениям
Вы не можете скачивать файлы