Ивановский Торрент трекер
Яндекс.Погода
 

[Цитировать]
димитри37

Византия / Byzantium
«Нет связи крепче, чем узы крови»
Страна: Великобритания, США, Ирландия
Жанр: фэнтези, триллер, драма
Год выпуска: 2012
Продолжительность: 01:58:07
Перевод: Одноголосый закадровый [datynet]
Субтитры: нет
Режиссер: Нил Джордан / Neil Jordan
В ролях: Сирша Ронан, Бэрри Кессин, Джемма Артертон, Дэвид Хип, Уоррен Браун, Руби Снейп, Туре Линдхардт, Дженни Кэвэна, Гленн Доэрти, Эдита Будник, Габриэла Марчинкова, Калеб Лэндри Джонс
Описание: История партнёрства вампиров - матери и дочери, которые выдают себя за сестёр.


MPAA: R - Лицам до 17 лет обязательно присутствие взрослого
Сценарий: Моира Буффини / Moira Buffini
Продюсер: Сэм Энглебардт / Sam Englebardt, Стивен Вулли / Stephen Woolley, Уильям Д. Джонсон / William D. Johnson, Элизабет Карлсен / Elizabeth Karlsen, Алан Молони / Alan Moloney
Оператор: Шон Боббитт / Sean Bobbitt
Композитор: Хавьер Наваррете / Javier Navarrete
Бюджет: $8 000 000
Сборы в США: $84 293
Мировая премьера: 9 сентября 2012
Качество: WEB-DLRip
Контейнер: AVI
Видео: XviD, 720x304 (2.35:1), 1907 kbps, 24 fps, 0,363 bpp
Аудио №1: Russian: MP3 / 2.0 / 44 kHz / 192 kbps /
Аудио №2: English: AC3 / 5.1 / 48 kHz / 384 kbps / 16 bit

Знаете ли Вы, что...

  • Джемма Артертон предложила Сиршу Ронан на роль Элеанор, потому что была впечатлена ее игрой в фильме «Ханна. Совершенное оружие».

Media Info

General
Complete name : G:\Vizantija.2012.XviD_WEB-DLRip.avi
Format : AVI
Format/Info : Audio Video Interleave
Format profile : OpenDML
File size : 2.06 GiB
Duration : 1h 58mn
Overall bit rate : 2 501 Kbps
Writing application : VirtualDubMod 1.5.10.3 (build 2550/release)
Writing library : VirtualDubMod build 2550/release
Video
ID : 0
Format : MPEG-4 Visual
Format profile : Advanced Simple@L5
Format settings, BVOP : 2
Format settings, QPel : No
Format settings, GMC : No warppoints
Format settings, Matrix : Custom
Codec ID : XVID
Codec ID/Hint : XviD
Duration : 1h 58mn
Bit rate : 1 907 Kbps
Width : 720 pixels
Height : 304 pixels
Display aspect ratio : 2.35:1
Frame rate : 24.000 fps
Color space : YUV
Chroma subsampling : 4:2:0
Bit depth : 8 bits
Scan type : Progressive
Compression mode : Lossy
Bits/(Pixel*Frame) : 0.363
Stream size : 1.57 GiB (76%)
Writing library : XviD 73
Audio #1
ID : 1
Format : MPEG Audio
Format version : Version 1
Format profile : Layer 3
Codec ID : 55
Codec ID/Hint : MP3
Duration : 1h 58mn
Bit rate mode : Constant
Bit rate : 192 Kbps
Channel(s) : 2 channels
Sampling rate : 44.1 KHz
Compression mode : Lossy
Stream size : 162 MiB (8%)
Alignment : Split accross interleaves
Interleave, duration : 42 ms (1.00 video frame)
Interleave, preload duration : 500 ms
Audio #2
ID : 2
Format : AC-3
Format/Info : Audio Coding 3
Mode extension : CM (complete main)
Codec ID : 2000
Duration : 1h 58mn
Bit rate mode : Constant
Bit rate : 384 Kbps
Channel(s) : 6 channels
Channel positions : Front: L C R, Side: L R, LFE
Sampling rate : 48.0 KHz
Bit depth : 16 bits
Compression mode : Lossy
Stream size : 324 MiB (15%)
Alignment : Split accross interleaves
Interleave, duration : 42 ms (1.00 video frame)
Interleave, preload duration : 500 ms

Скриншот с названием фильма

Скриншоты

-Источник:


Показать сообщения:    

Текущее время: 15-Дек 02:48

Часовой пояс: UTC ± 0


Вы не можете начинать темы
Вы не можете отвечать на сообщения
Вы не можете редактировать свои сообщения
Вы не можете удалять свои сообщения
Вы не можете голосовать в опросах
Вы не можете прикреплять файлы к сообщениям
Вы не можете скачивать файлы

!ВНИМАНИЕ!
Сайт не предоставляет электронные версии произведений, а занимается лишь коллекционированием и каталогизацией ссылок, присылаемых и публикуемых на форуме нашими читателями. Если вы являетесь правообладателем какого-либо представленного материала и не желаете, чтобы ссылка на него находилась в нашем каталоге, свяжитесь с нами, и мы незамедлительно удалим ее. Файлы для обмена на трекере предоставлены пользователями сайта, и администрация не несет ответственности за их содержание. Просьба не заливать файлы, защищенные авторскими правами, а также файлы нелегального содержания!