Ивановский Торрент трекер
Яндекс.Погода
 

[Цитировать]
HUNTER


Видео уроки Шаффл-Год выпуска: 2009
Страна: Россия
Сайт производителя: отсутствует
Тематика: танцы
Тип материала: Обучающее видео
Продолжительность: 00:58:07
Автор: отсутствует
Язык: Русский
Субтитры: отсутствуют-Описание: Шаффл – своеобразный синтез старого и нового, идеальное сочетание джазовых тенденций и современной электронной культуры. Скользящие движения, грация, присущая шаффлу – все это привлекает поклонников этого танцевального стиля.
Обучение этому танцу можно проводить самостоятельно, используя видео уроки шаффл. Типичные движения этого стиля вы можете усвоить, просмотрев видео уроки шаффл. Разнообразные скольжения, шаги на месте, треугольники – все это подробно и медленно вам покажет инструктор.
-Качество: DVDRip
Формат: AVI
Видео кодек: XviD
Аудио кодек: MP3
Видео: 640x480 (1.33:1), 19.961 fps, XviD build 50 ~2136 kbps avg, 0.35 bit/pixel
Аудио: 44.100 kHz, MPEG Layer 3, 2 ch, ~128.00 kbps avg-

MediaInfo

Код: copyText_writeLink('this.parentNode.parentNode.nextSibling.nextSibling'); Общее
Полное имя : D:\обуч\shuffle_school\Lesson 01-10 Base\Shuffle Tutorial - 01 lesson Running man.avi
Формат : AVI
Формат/Информация : Audio Video Interleave
Размер файла : 27,3 Мбайт
Продолжительность : 2 м. 53 с.
Общий поток : 1322 Кбит/сек
Программа кодирования : MEncoder SVN-r30881(20100311-gcc4.3.3)
Библиотека кодирования : MPlayer
Видео
Идентификатор : 0
Формат : MPEG-4 Visual
Профиль формата : Advanced Simple@L5
Параметр BVOP формата : 2
Параметр QPel формата : Нет
Параметр GMC формата : Без точки перехода
Параметр матрицы формата : Default (H.263)
Идентификатор кодека : XVID
Идентификатор кодека/Подсказка : XviD
Продолжительность : 2 м. 52 с.
Битрейт : 1186 Кбит/сек
Ширина : 640 пикселей
Высота : 480 пикселей
Соотношение сторон : 4:3
Частота кадров : 14,961 кадров/сек
Цветовое пространство : YUV
Субдискретизация насыщенности : 4:2:0
Битовая глубина : 8 бит
Тип развёртки : Прогрессивная
Метод сжатия : С потерями
Бит/(Пиксели*Кадры) : 0.258
Размер потока : 24,5 Мбайт (90%)
Библиотека кодирования : XviD 1.2.1 (UTC 2008-12-04)
Аудио
Идентификатор : 1
Формат : MPEG Audio
Версия формата : Version 1
Профиль формата : Layer 3
Режим : Joint stereo
Расширение режима : MS Stereo
Идентификатор кодека : 55
Идентификатор кодека/Подсказка : MP3
Продолжительность : 2 м. 53 с.
Вид битрейта : Постоянный
Битрейт : 128 Кбит/сек
Каналы : 2 канала
Частота : 44,1 КГц
Метод сжатия : С потерями
Задержка видео : 67 мс.
Размер потока : 2,65 Мбайт (10%)
Выравнивание : Соединение по промежуткам
Продолжительность промежутка : 26 мс. (0,39 видеокадр)
Время предзагрузки промежутка : 522 мс.
Библиотека кодирования : LAME3.98

Скриншоты

-
0 человек читают эту тему: 0 пользователей, 0 скрытых пользователей, 0 гостей

Показать сообщения:    

Текущее время: 23-Авг 03:31

Часовой пояс: UTC - 1


Вы не можете начинать темы
Вы не можете отвечать на сообщения
Вы не можете редактировать свои сообщения
Вы не можете удалять свои сообщения
Вы не можете голосовать в опросах
Вы не можете прикреплять файлы к сообщениям
Вы не можете скачивать файлы

!ВНИМАНИЕ!
Сайт не предоставляет электронные версии произведений, а занимается лишь коллекционированием и каталогизацией ссылок, присылаемых и публикуемых на форуме нашими читателями. Если вы являетесь правообладателем какого-либо представленного материала и не желаете, чтобы ссылка на него находилась в нашем каталоге, свяжитесь с нами, и мы незамедлительно удалим ее. Файлы для обмена на трекере предоставлены пользователями сайта, и администрация не несет ответственности за их содержание. Просьба не заливать файлы, защищенные авторскими правами, а также файлы нелегального содержания!