Ивановский Торрент трекер
Яндекс.Погода
 

[Цитировать]
HUNTER

Видео-тур по МКС от Суниты Уильямс
Год выпуска: 2013
Страна: США
Жанр: научно-познавательный
Продолжительность: 00:25:27
Перевод: Профессиональный (одноголосый закадровый)
Режиссер: Сунита Уильямс / Sunita Williams
Описание: Астронавт НАСА Сунита Уильямс перед возвращением на Землю с МКС сняла интересный видео-тур по Международной Космической Станции.
Видео снято 18 ноября 2012 года в последние часы пребывания на МКС командира станции Суниты Уильямс, космонавта Юрия Маленченко и бортинженера Аки Хосидо. После чего они отправились в корабль Союз ТМА-05М для возвращения на Землю.
Тур включает в себя описания модулей станции и научно-исследовательские лаборатории.

качество: WEBRip
формат: AVI
Видео: Xvid 720x480 23.976fps 1993kbps
Аудио: MP3 48000Hz stereo 122kbps

MediaInfo

Format : AVIFormat/Info : Audio Video InterleaveFile size : 387 MiBDuration : 25mn 26sOverall bit rate mode : VariableOverall bit rate : 2 128 KbpsWriting application : MEncoder Sherpya-SVN-r32492-4.2.5Writing library : MPlayer
VideoID : 0Format : MPEG-4 VisualFormat profile : Simple@L3Format settings, BVOP : NoFormat settings, QPel : NoFormat settings, GMC : No warppointsFormat settings, Matrix : Default (H.263)Codec ID : XVIDCodec ID/Hint : XviDDuration : 25mn 26sBit rate : 1 993 KbpsWidth : 720 pixelsHeight : 480 pixelsDisplay aspect ratio : 3:2Original display aspect ratio : 3:2Frame rate : 23.976 fpsStandard : NTSCColor space : YUVChroma subsampling : 4:2:0Bit depth : 8 bitsScan type : ProgressiveCompression mode : LossyBits/(Pixel*Frame) : 0.241Stream size : 363 MiB (94%)Writing library : XviD 1.2.1 (UTC 2008-12-04)
AudioID : 1Format : MPEG AudioFormat version : Version 1Format profile : Layer 3Mode : Joint stereoCodec ID : 55Codec ID/Hint : MP3Duration : 25mn 26sBit rate mode : VariableBit rate : 122 KbpsChannel(s) : 2 channelsSampling rate : 48.0 KHzCompression mode : LossyStream size : 22.3 MiB (6%)Alignment : Aligned on interleavesInterleave, duration : 24 ms (0.58 video frame)Interleave, preload duration : 539 ms
Показать сообщения:    

Текущее время: 20-Окт 02:31

Часовой пояс: UTC - 1


Вы не можете начинать темы
Вы не можете отвечать на сообщения
Вы не можете редактировать свои сообщения
Вы не можете удалять свои сообщения
Вы не можете голосовать в опросах
Вы не можете прикреплять файлы к сообщениям
Вы не можете скачивать файлы

!ВНИМАНИЕ!
Сайт не предоставляет электронные версии произведений, а занимается лишь коллекционированием и каталогизацией ссылок, присылаемых и публикуемых на форуме нашими читателями. Если вы являетесь правообладателем какого-либо представленного материала и не желаете, чтобы ссылка на него находилась в нашем каталоге, свяжитесь с нами, и мы незамедлительно удалим ее. Файлы для обмена на трекере предоставлены пользователями сайта, и администрация не несет ответственности за их содержание. Просьба не заливать файлы, защищенные авторскими правами, а также файлы нелегального содержания!