Ивановский Торрент трекер
Яндекс.Погода
 

[Цитировать]
HUNTER

Видеокурс Lightroom 2-4-
Год выпуска: 2012
Страна: Россия
Сайт производителя: http://svetlayakomnata.ru/
Тематика: обработка фотографий
Тип материала: обучающее видео-Продолжительность: 08:13:24
Автор: Кирилл Дорошенко-Язык: Русский
Субтитры: отсутствуют-Описание: Первый видеоурок о Lightroom. Буду идти по порядку. Сколько уроков будет всего — не знаю пока, не планировал (а ведь надо), но будет много, наверно штук пятьдесят. Попытаюсь создать первый русский полноценный видеокурс по Lightroom. Во как! Если выкладывать в неделю по… скажем, по пять — займет у меня больше двух месяцев.
Это HD видео 1280 x 720. Смотреть конечно лучше развернув во весь экран и в HD режиме.
-Качество: HDRip
Формат: mp4
Видео кодек: AVC
Аудио кодек: AAC
Видео: MPEG4 Video (H264) 1280x720 15fps 377kbps [Video]
Аудио: AAC 22050Hz stereo 94kbps [Audio]-

Содержание

Весь курс уроков по Lightroom 2-4 на русском языке
Пример обработки свадебной фотографии в Lightroom 4
Новый инструмент подавления хроматических аберраций в LR4.1 RC2
Новое в Lightroom 4. Цветопроба. Soft proof
Новые возможности панели Basic в Lightroom 4
Lightroom 4, полнофункциональная версия
Lightroom 4 бета-версия. Обзор новшеств
Приёмы работы в редакторе фотокниг Альбука
Редактор фотокниг от printbook
Экспорт фотографий из Lightroom для фотокниги
Урок 41. Создание web-галерей в Lightroom
Быстрые клавиши Lightroom
Урок 40. Модуль Print в Adobe Lightroom 3
Урок 039. Slideshow
Урок 038. Обработка женского портрета в Lightroom
Вышли Lightroom 3.3 и Camera RAW 6.3. Список изменений
Урок 037 (041). Пример обработки пейзажа в Lightroom 3
Видеоурок 036 (040). Панели History и Snapshots
Видеоурок 035 (039). Пресеты
Видеоурок 034 (38). Инструменты: Red eye correction, Graduated filter, Adjustment Brush
Видеоурок 033. Инструменты Crop и Spot Removal
Видеоурок 032. Camera Calibration
Новое в Lightroom 3. Остаток
Новое в Lightroom 3. Develop
Новое в Lightroom 3. Импорт
Видеоурок 031. Панель Detail в Lightroom 2
Видеоурок 030. Панель Split toning в Lightroom 2
Видеоурок 029. Панель HSL/Color/Grayscale.
Видеоурок 028. Tone Curve в Lightroom и не только
Видеоуроки 026, 027. Clarity, Vibrance, Saturation. Последовательность работы в панели Basic.
Видеоуроки 024, 025. Тоновая коррекция
Видеоуроки 022, 023. Настройка сохранения обработки. Баланс белого
Видеоурок 021. Поиск в Lightroom 2, фильтры
Видеоурок 020. Сравниваем фотографии в Compare view и Survey View
Урок по Lightroom. Compare view и Survey view.
Видеоурок 019. Настройки каталога.
Видеоуроки 017 и 018. Панель Keyword list
Видеоурок 016. Другие способы назначения ключевых слов в Photoshop Lightroom 2
Видеоурок 014. Работа с метаданными в Photoshop Lightroom 2
Видеоурок 013. Цветовые метки и рейтинги в Adobe Photoshop Lightroom 2
Видеоурок 012. Виртуальные копии в Lightroom 2. Флаги
Видеоурок 011. Stacking. Складываем фото в стопки вручную и автоматически
Видеоурок 010. Коллекции, часть 2
Видеоурок 009. Коллекции, часть 1.
Видеоурок 008. Управление папками в Lightroom 2. Часть 2
Видеоурок “вне плана”. Инвертирование в Lightroom. Как перевернуть кривую.
Видео урок 007. Управление папками в Lightroom 2.
Видео урок 006. Настройка отображения Grig view и Loop view.
Видео урок 005. Импорт фотографий в Lightroom, часть 2
Видео урок 004. Импорт фотографий в Lightroom, часть 1.
Видеоурок 003. Настройка интерфейса lightroom.
Видеоурок 002. Знакомство с интерфейсом Lightroom
Видеоурок 001. Вступление. Как устроен Lightroom.

MediaInfo

Код: copyText_writeLink('this.parentNode.parentNode.nextSibling.nextSibling'); General
Complete name : D:\обучение 25,12\Новая папка\Видеокурс Lightroom на русском\033_RUcourseLR_Crop_Spot.mp4
Format : MPEG-4
Format profile : Base Media / Version 2
Codec ID : mp42
File size : 35.5 MiB
Duration : 10mn 27s
Overall bit rate : 475 Kbps
Encoded date : UTC 2010-08-31 09:25:48
Tagged date : UTC 2010-08-31 09:25:48
Video
ID : 1
Format : AVC
Format/Info : Advanced Video Codec
Format profile : High@L4.0
Format settings, CABAC : Yes
Format settings, ReFrames : 4 frames
Codec ID : avc1
Codec ID/Info : Advanced Video Coding
Duration : 10mn 27s
Source duration : 10mn 27s
Bit rate mode : Variable
Bit rate : 351 Kbps
Width : 1 280 pixels
Height : 720 pixels
Display aspect ratio : 16:9
Frame rate mode : Constant
Frame rate : 15.000 fps
Color space : YUV
Chroma subsampling : 4:2:0
Bit depth : 8 bits
Scan type : Progressive
Bits/(Pixel*Frame) : 0.025
Stream size : 26.3 MiB (74%)
Source stream size : 28.3 MiB (80%)
Language : English
Encoded date : UTC 2010-08-31 09:25:48
Tagged date : UTC 2010-08-31 09:25:48
mdhd_Duration : 627289
Color primaries : BT.709
Transfer characteristics : BT.709
Matrix coefficients : BT.709
Audio
ID : 2
Format : AAC
Format/Info : Advanced Audio Codec
Format profile : LC
Codec ID : 40
Duration : 10mn 27s
Source duration : 10mn 27s
Bit rate mode : Constant
Bit rate : 96.0 Kbps
Channel(s) : 2 channels
Channel positions : Front: L R
Sampling rate : 22.05 KHz
Compression mode : Lossy
Stream size : 7.09 MiB (20%)
Source stream size : 7.09 MiB (20%)
Language : English
Encoded date : UTC 2010-08-31 09:25:48
Tagged date : UTC 2010-08-31 09:25:48
mdhd_Duration : 627353
- -
Показать сообщения:    

Текущее время: 23-Окт 12:24

Часовой пояс: UTC - 1


Вы не можете начинать темы
Вы не можете отвечать на сообщения
Вы не можете редактировать свои сообщения
Вы не можете удалять свои сообщения
Вы не можете голосовать в опросах
Вы не можете прикреплять файлы к сообщениям
Вы не можете скачивать файлы

!ВНИМАНИЕ!
Сайт не предоставляет электронные версии произведений, а занимается лишь коллекционированием и каталогизацией ссылок, присылаемых и публикуемых на форуме нашими читателями. Если вы являетесь правообладателем какого-либо представленного материала и не желаете, чтобы ссылка на него находилась в нашем каталоге, свяжитесь с нами, и мы незамедлительно удалим ее. Файлы для обмена на трекере предоставлены пользователями сайта, и администрация не несет ответственности за их содержание. Просьба не заливать файлы, защищенные авторскими правами, а также файлы нелегального содержания!