Ивановский Торрент трекер
Яндекс.Погода
Статистика раздачи
Размер:  5.45 GB   |    Зарегистрирован:  1 год 8 месяцев   |    Скачан:  0 раз

Полного источника не было: Никогда

 
     
 
 
 

[Цитировать]
HUNTER

Взорвать Гитлера / Elser / 13 Minutes Страна: Германия
Жанр: драма
Год выпуска: 2015
Продолжительность: 01:53:48
Перевод: Любительский (многоголосый закадровый) Студия "Paradox & Omskbird records" // Перевод: Наталия Рыбина
Cубтитры: английские, немецкие (SDH)
Оригинальная аудиодорожка: немецкий
Режиссер: Оливер Хиршбигель / Oliver Hirschbiegel
В ролях: Кристиан Фридель, Катарина Шюттлер, Бургхарт Клаусснер, Йохан фон Бюлов, Феликс Эйтнер, Давид Зиммершмид, Рюдигер Клинк, Симон Лихт, Корнелия Конгден, Мартин Мария Абрам
Описание:
Всего 13 минут не хватило плотнику Георгу Эльзеру, чтобы изменить ход мировой истории. 8 ноября 1939 года в мюнхенской пивной «Бюргербройкеллер», где Гитлер каждый год в годовщину «Пивного путча» выступал перед ветеранами Национал-социалистической рабочей партии Германии Эльзер вмонтировал самодельное взрывное устройство с часовым механизмом в колонну, перед которой обычно устанавливали трибуну для вождя.
В результате взрыва 8 человек было убито и 63 ранено. Однако Гитлера среди пострадавших не оказалось. Фюрер, ограничившись на этот раз кратким приветствием в адрес собравшихся, покинул зал за семь минут до взрыва, так как ему нужно было возвращаться в Берлин.
В фильме реконструирован социально-политический контекст того времени, а также события происходившие с Георгом Эльзером.
- || -Тип релиза: BDRip 720p (рип от maodaye@HDS)
Контейнер: MKV
Видео: AVC (x264), 1280x536 (2.40:1) at 24,000 fps, 5503 Кbps
Аудио 1: AC3; 448 Kbps; CBR; 6 ch; 48 khz | MVO |
Аудио 2: DTS; 768 Kbps; CBR; 6 ch; 48 khz | Немецкий |
Формат субтитров: softsub (SRT)

Скриншоты || x264 Info || MediaInfo || Notes

MediaInfo
General
Unique ID                                : 253615814798712461603722408166518158909 (0xBECCA113D8FE31F6ABA6E2540AD3F63D)
Complete name                            : Взорвать Гитлера.2015.MVO.720p.BluRay.x264-HDS.mkv
Format                                   : Matroska
Format version                           : Version 4 / Version 2
File size                                : 5.45 GiB
Duration                                 : 1h 53mn
Overall bit rate                         : 6 855 Kbps
Movie name                               : 13 Minutes [2015] [720p] MVO
Encoded date                             : UTC 2016-03-06 13:45:55
Writing application                      : mkvmerge v7.8.0 ('River Man') 32bit built on Mar 27 2015 16:18:02
Writing library                          : libebml v1.3.1 + libmatroska v1.4.2
Video
ID                                       : 1
Format                                   : AVC
Format/Info                              : Advanced Video Codec
Format profile                           : High@L4.1
Format settings, CABAC                   : Yes
Format settings, ReFrames                : 9 frames
Codec ID                                 : V_MPEG4/ISO/AVC
Duration                                 : 1h 53mn
Bit rate                                 : 5 503 Kbps
Width                                    : 1 280 pixels
Height                                   : 536 pixels
Display aspect ratio                     : 2.40:1
Frame rate mode                          : Constant
Frame rate                               : 24.000 fps
Color space                              : YUV
Chroma subsampling                       : 4:2:0
Bit depth                                : 8 bits
Scan type                                : Progressive
Bits/(Pixel*Frame)                       : 0.334
Stream size                              : 4.37 GiB (80%)
Title                                    : profile.php?mode=viewprofile&u=22488948
Writing library                          : x264 core 142 r2431+42 c69a006 tMod [8-bit@4:2:0 X86_64]
Encoding settings                        : cabac=1 / ref=9 / deblock=1:-3:-3 / analyse=0x3:0x113 / me=umh / subme=11 / psy=1 / fade_compensate=0.00 / psy_rd=1.00:0.05 / mixed_ref=1 / me_range=32 / chroma_me=1 / trellis=2 / 8x8dct=1 / cqm=0 / deadzone=21,11 / fast_pskip=0 / chroma_qp_offset=-2 / threads=12 / lookahead_threads=2 / sliced_threads=0 / nr=0 / decimate=1 / interlaced=0 / bluray_compat=0 / constrained_intra=0 / fgo=0 / bframes=8 / b_pyramid=2 / b_adapt=2 / b_bias=0 / direct=3 / weightb=1 / open_gop=0 / weightp=2 / keyint=250 / keyint_min=24 / scenecut=40 / intra_refresh=0 / rc_lookahead=40 / rc=crf / mbtree=0 / crf=18.5000 / qcomp=0.60 / qpmin=0:0:0 / qpmax=69:69:69 / qpstep=4 / vbv_maxrate=30000 / vbv_bufsize=30000 / crf_max=0.0 / nal_hrd=none / filler=0 / ip_ratio=1.40 / pb_ratio=1.30 / aq=3:1.00 / aq-sensitivity=10.00 / aq-factor=1.00:1.00:1.00 / aq2=0 / aq3=0
Language                                 : German
Default                                  : Yes
Forced                                   : No
Matrix coefficients                      : BT.709
Color range                              : Limited
Audio #1
ID                                       : 2
Format                                   : AC-3
Format/Info                              : Audio Coding 3
Mode extension                           : CM (complete main)
Format settings, Endianness              : Big
Codec ID                                 : A_AC3
Duration                                 : 1h 53mn
Bit rate mode                            : Constant
Bit rate                                 : 448 Kbps
Channel(s)                               : 6 channels
Channel positions                        : Front: L C R, Side: L R, LFE
Sampling rate                            : 48.0 KHz
Bit depth                                : 16 bits
Compression mode                         : Lossy
Stream size                              : 365 MiB (7%)
Title                                    : MVO [Paradox & Omskbird records]
Language                                 : Russian
Default                                  : Yes
Forced                                   : No
Audio #2
ID                                       : 3
Format                                   : DTS
Format/Info                              : Digital Theater Systems
Mode                                     : 16
Format settings, Endianness              : Big
Codec ID                                 : A_DTS
Duration                                 : 1h 53mn
Bit rate mode                            : Constant
Bit rate                                 : 768 Kbps
Channel(s)                               : 6 channels
Channel positions                        : Front: L C R, Side: L R, LFE
Sampling rate                            : 48.0 KHz
Bit depth                                : 24 bits
Compression mode                         : Lossy
Stream size                              : 625 MiB (11%)
Language                                 : German
Default                                  : No
Forced                                   : No
Text #1
ID                                       : 4
Format                                   : UTF-8
Codec ID                                 : S_TEXT/UTF8
Codec ID/Info                            : UTF-8 Plain Text
Language                                 : English
Default                                  : No
Forced                                   : No
Text #2
ID                                       : 5
Format                                   : UTF-8
Codec ID                                 : S_TEXT/UTF8
Codec ID/Info                            : UTF-8 Plain Text
Language                                 : German
Default                                  : No
Forced                                   : No
Menu
00:00:00.000                             : de:
00:06:04.958                             : de:
00:09:56.541                             : de:
00:17:13.958                             : de:
00:25:41.833                             : de:
00:47:22.416                             : de:
01:02:06.291                             : de:
01:18:20.708                             : de:
01:38:23.000                             : de:

x264 Info

x264 [info]: frame I:1467 Avg QP:16.12 size:111853
x264 [info]: frame P:31389 Avg QP:17.28 size: 53517
x264 [info]: frame B:131019 Avg QP:18.39 size: 22645
x264 [info]: consecutive B-frames: 1.5% 1.1% 5.1% 13.8% 15.1% 42.8% 9.5% 5.1% 6.0%
Цитата: За русскую аудио дорожку, спасибки: TERRAN1
-
Студия "Paradox & Omskbird records" - роли озвучивали: Павел Ярощик, Константин Погодаев, Андрей Астров, Максим Максимов, Анастасия Флигина
[iv-torrents.ru].t54709.torrent
Торрент: Зарегистрирован [ 2016-03-13 07:34 ] · 7F92837362D5657D8CC9888D1B213E795787BA23

Скачать .torrent

Скачать

14 KB

Статус: проверено
Скачан: 0 раз
Размер: 5.45 GB
terms.php


Показать сообщения:    

Текущее время: 13-Дек 07:32

Часовой пояс: UTC ± 0


Вы не можете начинать темы
Вы не можете отвечать на сообщения
Вы не можете редактировать свои сообщения
Вы не можете удалять свои сообщения
Вы не можете голосовать в опросах
Вы не можете прикреплять файлы к сообщениям
Вы можете скачивать файлы

!ВНИМАНИЕ!
Сайт не предоставляет электронные версии произведений, а занимается лишь коллекционированием и каталогизацией ссылок, присылаемых и публикуемых на форуме нашими читателями. Если вы являетесь правообладателем какого-либо представленного материала и не желаете, чтобы ссылка на него находилась в нашем каталоге, свяжитесь с нами, и мы незамедлительно удалим ее. Файлы для обмена на трекере предоставлены пользователями сайта, и администрация не несет ответственности за их содержание. Просьба не заливать файлы, защищенные авторскими правами, а также файлы нелегального содержания!