Ивановский Торрент трекер
Яндекс.Погода
 

[Цитировать]
HUNTER

Взлом : Home Invasion«Help is on the way, if you live that long» Год выпуска: 2016
Страна: США
Жанр: триллер
Продолжительность: 01:28:31
Перевод: Профессиональный (Многоголосый закадровый) - iTunes
Ссубтитры: русские, английские
Оригинальная аудиодорожка: английская-Режиссёр: Дэвид Теннант : David Tennant-В главных ролях: Наташа Хенстридж, Лиам Дикинсон, Майкл Роджерс, Кристиан Тессьер, Бренда Кричлоу, Лиэнн Лэпп, Гари Чок, Уэсли Сэлтер, Питер Клафф, Ли Тичон-Описание: Ужас приходит к персонажам этого психологического триллера в месте, которое они считали самым безопасным. В своем загородном доме, состоятельная дама со своим приемным сыном становятся жертвой нападения трех изощренных и беспощадных воров. Единственная их надежда на спасение - это оператор службы домашней сигнализации на другом конце телефона. Сможет ли он стать глазами пленников собственного дома и помочь им выбраться из кошмара наяву?- -Качество: WEB-DL 720p
Формат: MKV
Видео кодек: AVC
Аудио кодек: AC3
Видео: 1280x720 , 23,976 fps, ~3927 kbps avg, 0.178 bit/pixel
Аудио #1: [RUS] 48 kHz, AC3 Dolby Digital, 3/2 (L,C,R,l,r) + LFE ch, ~384 kbps avg
Аудио #2: [ENG] 48 kHz, AC3 Dolby Digital, 3/2 (L,C,R,l,r) + LFE ch, ~384 kbps avg
субтитры: русские, английские
навигация по главам: 16 главы (не именных)

скриншоты

MediaInfo

Общее
Уникальный идентификатор : 186849128513628780783597931915013087955 (0x8C91D54A8B56D8258DDFB22DC89562D3)
Полное имя : D:\Home Invasion.2016.WEB-DL 720p.mkv
Формат : Matroska
Версия формата : Version 4 / Version 2
Размер файла : 2,96 Гбайт
Продолжительность : 1 ч. 28 м.
Общий поток : 4783 Кбит/сек
Название фильма : Home Invasion.2016.WEB-DL 720p
Дата кодирования : UTC 2016-03-10 08:32:15
Программа кодирования : mkvmerge v7.1.0 ('Good Love') 32bit built on Jul 27 2014 12:59:18
Библиотека кодирования : libebml v1.3.0 + libmatroska v1.4.1
DURATION : 01:24:16.861000000
NUMBER_OF_FRAMES : 924
NUMBER_OF_BYTES : 32606
_STATISTICS_WRITING_APP : mkvmerge v7.1.0 ('Good Love') 32bit built on Jul 27 2014 12:59:18
_STATISTICS_WRITING_DATE_UTC : 2016-03-10 08:32:15
_STATISTICS_TAGS : BPS DURATION NUMBER_OF_FRAMES NUMBER_OF_BYTES
Видео
Идентификатор : 1
Формат : AVC
Формат/Информация : Advanced Video Codec
Профиль формата : High@L3.1
Параметр CABAC формата : Нет
Параметр ReFrames формата : 2 кадра
Идентификатор кодека : V_MPEG4/ISO/AVC
Продолжительность : 1 ч. 28 м.
Битрейт : 3920 Кбит/сек
Ширина : 1280 пикселей
Высота : 720 пикселей
Соотношение сторон : 16:9
Режим частоты кадров : Постоянный
Частота кадров : 23,976 кадра/сек
Цветовое пространство : YUV
Субдискретизация насыщенности : 4:2:0
Битовая глубина : 8 бит
Тип развёртки : Прогрессивная
Бит/(Пиксели*Кадры) : 0.177
Размер потока : 2,42 Гбайт (82%)
Язык : English
Default : Да
Forced : Нет
Цветовой диапазон : Limited
Основные цвета : BT.709
Характеристики трансфера : BT.709
Коэффициенты матрицы : BT.709
Аудио #1
Идентификатор : 2
Формат : AC-3
Формат/Информация : Audio Coding 3
Расширение режима : CM (complete main)
Параметр Endianness формата : Big
Идентификатор кодека : A_AC3
Продолжительность : 1 ч. 28 м.
Вид битрейта : Постоянный
Битрейт : 384 Кбит/сек
Каналы : 6 каналов
Расположение каналов : Front: L C R, Side: L R, LFE
Частота : 48,0 КГц
Метод сжатия : С потерями
Размер потока : 243 Мбайт (8%)
Заголовок : MVO
Язык : Russian
Default : Да
Forced : Нет
Аудио #2
Идентификатор : 3
Формат : AC-3
Формат/Информация : Audio Coding 3
Расширение режима : CM (complete main)
Параметр Endianness формата : Big
Идентификатор кодека : A_AC3
Продолжительность : 1 ч. 28 м.
Вид битрейта : Постоянный
Битрейт : 384 Кбит/сек
Каналы : 6 каналов
Расположение каналов : Front: L C R, Side: L R, LFE
Частота : 48,0 КГц
Метод сжатия : С потерями
Размер потока : 243 Мбайт (8%)
Заголовок : ENG
Язык : English
Default : Нет
Forced : Нет
Текст #1
Идентификатор : 4
Формат : UTF-8
Идентификатор кодека : S_TEXT/UTF8
Идентификатор кодека/Информация : UTF-8 Plain Text
Заголовок : rus sub
Язык : Russian
Default : Нет
Forced : Нет
Текст #2
Идентификатор : 5
Формат : UTF-8
Идентификатор кодека : S_TEXT/UTF8
Идентификатор кодека/Информация : UTF-8 Plain Text
Заголовок : eng sub
Язык : English
Default : Нет
Forced : Нет
Меню
00:00:00.000 : en:1
00:05:51.000 : en:2
00:11:34.000 : en:3
00:17:01.000 : en:4
00:23:04.000 : en:5
00:29:36.000 : en:6
00:34:38.000 : en:7
00:39:09.000 : en:8
00:44:11.000 : en:9
00:49:31.000 : en:10
00:54:14.000 : en:11
00:59:23.000 : en:12
01:05:12.000 : en:13
01:10:44.000 : en:14
01:17:49.000 : en:15
01:24:09.000 : en:16
Показать сообщения:    

Текущее время: 18-Окт 14:02

Часовой пояс: UTC - 1


Вы не можете начинать темы
Вы не можете отвечать на сообщения
Вы не можете редактировать свои сообщения
Вы не можете удалять свои сообщения
Вы не можете голосовать в опросах
Вы не можете прикреплять файлы к сообщениям
Вы не можете скачивать файлы

!ВНИМАНИЕ!
Сайт не предоставляет электронные версии произведений, а занимается лишь коллекционированием и каталогизацией ссылок, присылаемых и публикуемых на форуме нашими читателями. Если вы являетесь правообладателем какого-либо представленного материала и не желаете, чтобы ссылка на него находилась в нашем каталоге, свяжитесь с нами, и мы незамедлительно удалим ее. Файлы для обмена на трекере предоставлены пользователями сайта, и администрация не несет ответственности за их содержание. Просьба не заливать файлы, защищенные авторскими правами, а также файлы нелегального содержания!