Важное объявление!
У Нас Все раздачи мультитрекерные, при нуле пиров в релизах, можете смело вставать на закачку!
 
Автор Сообщение

HUNTER

Стаж:
4 года 8 месяцев
Сообщений:
61987

Репутация: 101

[+] [-]
Вне форума [Профиль] [ЛС]

Взгляд изнутри. Торговля органами / National Geographic: Inside. The Body Trade-Год выпуска: 2009
Страна: США
Жанр: Документальный, научно-популярный, драма, трагедия
Продолжительность: 00:47:50
Перевод: Одноголосый закадровый, профессиональный
Субтитры: нет-В ролях: Исторические лица, граждане
Режиссер: Ray Telles-Описание: Мы об этом слышали, кто-то даже это видел, но мало кто из нас представляет, что происходит внутри всего этого. И так, National Geographic предоставляет нам шанс собственными глазами увидеть "как это?". Мы узнаем, как проходят разные виды состязаний, от винных до футбольных; увидим изнутри, как торгуют человеческими органами, побываем за кулисами карнавала в Рио, а также увидим многое другое. В очередной серии Вы узнаете всю правду о нелегальном бизнесе, имя которому – торговля человеческими органами.
Смерть. Так или иначе мы все умираем. Или нет?
Наши тела, части из которых они состоят могут жить дальше. Это совсем другая загробная жизнь. Где тела умерших продолжают жить. Органы и ткани человека это сырьё современной медицины. Мы посмотрим на тело с новой точки зрения. Но стремительное развитие медицины и растущий спрос на органы, порождают не мыслимые преступления. Некоторые люди, готовы на всё ради столь необходимого. Это мир легальной и не легальной торговли, мир надежды, мир страха...

Знаете ли вы что...

Отчет бывшего Госсекретаря Канады по Азиатско-Тихоокеанскому региону Дэвида Килгура и международного правозащитника Дэвида Мэйтаса.
9 марта 2006 года газета The Epoch Times опубликовала страшную новость — в Китае найден концлагерь, скрывающийся за воротами клиники Суцзятунь, основными заключёнными которого являются последователи практики Фалунь Дафа Фалуньгун, уже более 10 лет подвергающиеся в Китае самым масштабным в истории репрессиям.
Бежавший из КНР журналист под псевдонимом «Питер», рассказал о тысячах операций по извлечению органов у живых людей, которые по его словам «ужаснее любого кошмара».
«Заявления, приведенные здесь, шокируют настолько, что в них почти невозможно поверить. Эти утверждения, если они являются правдой, выявляют неестественную форму зла, которая, несмотря на всю безнравственность и порочность, которому человечество когда-либо было свидетелем, является все же новой на этой планете. Настоящий ужас заставляет нас в неверии отшатнуться, однако это недоверие вовсе не означает, что данные утверждения ошибочны». (см. раздел - "ДРУГИЕ РАЗДАЧИ НА ЭТУ ТЕМУ")

-
Прошу скачавших оставаться на раздаче, как можно дольше!
-

***ДРУГИЕ РАЗДАЧИ НА ЭТУ ТЕМУ***

Качество: HDTVRip
Формат: AVI
Видео кодек: XviD
Аудио кодек: AC3
Видео: XviD; 720x400 (16:9); 1608 Kbps; 25 fps; 0,223 bpp
Аудио: AC3; 448 Kbps; CBR; 6 ch-

MediaInfo

General
Complete name : Vzgljad_Iznutri-Torgovlja_Organami.avi
Format : AVI
Format/Info : Audio Video Interleave
File size : 707 MiB
Duration : 47mn 50s
Overall bit rate : 2 067 Kbps
Video
ID : 0
Format : MPEG-4 Visual
Format profile : Simple@L3
Format settings, BVOP : No
Format settings, QPel : No
Format settings, GMC : No warppoints
Format settings, Matrix : Default (H.263)
Codec ID : XVID
Codec ID/Hint : XviD
Duration : 47mn 50s
Source duration : 47mn 50s
Bit rate : 1 608 Kbps
Width : 720 pixels
Height : 400 pixels
Display aspect ratio : 16:9
Frame rate : 25.000 fps
Color space : YUV
Chroma subsampling : 4:2:0
Bit depth : 8 bits
Scan type : Progressive
Compression mode : Lossy
Bits/(Pixel*Frame) : 0.223
Stream size : 550 MiB (78%)
Writing library : XviD 1.1.2 (UTC 2006-11-01)
Audio
ID : 1
Format : AC-3
Format/Info : Audio Coding 3
Mode extension : CM (complete main)
Format settings, Endianness : Big
Codec ID : 2000
Duration : 47mn 50s
Bit rate mode : Constant
Bit rate : 448 Kbps
Channel(s) : 6 channels
Channel positions : Front: L C R, Side: L R, LFE
Sampling rate : 48.0 KHz
Bit depth : 16 bits
Compression mode : Lossy
Stream size : 153 MiB (22%)
Alignment : Aligned on interleaves
Interleave, duration : 32 ms (0.80 video frame)
Interleave, preload duration : 512 ms

Скриншоты


_________________
Показать сообщения:    

Текущее время: Сегодня 14:44

Часовой пояс: GMT



Вы не можете начинать темы
Вы не можете отвечать на сообщения
Вы не можете редактировать свои сообщения
Вы не можете удалять свои сообщения
Вы не можете голосовать в опросах
Вы не можете прикреплять файлы к сообщениям
Вы не можете скачивать файлы
Наши партнеры: интернет магазин Ивановского трикотажа textilla.ru