Важное объявление!
У Нас Все раздачи мультитрекерные, при нуле пиров в релизах, можете смело вставать на закачку!
 
Автор Сообщение

HUNTER

Стаж:
4 года 8 месяцев
Сообщений:
62128

Репутация: 101

[+] [-]
Вне форума [Профиль] [ЛС]

"Взгляд изнутри". Сезон 2 / WEST COAST CUSTOMS: Inside
Страна: США
Режиссер: Adam Means
Жанр: Автошоу
Дата выпуска: 2011
Продолжительность: ~00:43:00 (серия)
Перевод: Профессиональный (двухголосый закадровый)
Описание: Шоу канала Discovery HD Showcase в стиле "Pimp my Ride" с той же автомастерской из г. Корона
Семпл: http://multi-up.com/938582
Качество видео: DVB-S2 Remux
Формат видео: TS
Видео: AVC, 1920x1080, 16:9, 7 407 Kbps, 25 fps
Аудио: AC-3, 384 Kbps, 48 kHz, 6 channels (русский)
Аудио: AC-3, 384 Kbps, 48 kHz, 6 channels (английский)

Media Info

G:\Взгляд изнутри. West Coast Customs. Сезон 2\АВТОМОБИЛЬ ДАРТА ВЕЙДЕРА.ts
General #6
ID : 6 (0x6)
Complete name : G:\Взгляд изнутри. West Coast Customs. Сезон 2\АВТОМОБИЛЬ ДАРТА ВЕЙДЕРА.ts
Format : MPEG-TS
File size : 2.58 GiB
Duration : 42mn 57s
Overall bit rate mode : Variable
Overall bit rate : 8 609 Kbps
Video #325
ID : 325 (0x145)
Menu ID : 12105 (0x2F49)
Format : AVC
Format/Info : Advanced Video Codec
Format profile : High@L4.0
Format settings, CABAC : Yes
Format settings, ReFrames : 3 frames
Format settings, GOP : M=4, N=28
Codec ID : 27
Duration : 42mn 56s
Bit rate : 7 407 Kbps
Width : 1 920 pixels
Height : 1 080 pixels
Display aspect ratio : 16:9
Frame rate : 25.000 fps
Standard : Component
Color space : YUV
Chroma subsampling : 4:2:0
Bit depth : 8 bits
Scan type : Interlaced
Scan order : Top Field First
Bits/(Pixel*Frame) : 0.143
Stream size : 2.22 GiB (86%)
Color primaries : BT.709
Transfer characteristics : BT.709
Matrix coefficients : BT.709
Audio #405
ID : 405 (0x195)
Menu ID : 12105 (0x2F49)
Format : AC-3
Format/Info : Audio Coding 3
Mode extension : CM (complete main)
Format settings, Endianness : Big
Codec ID : 6
Duration : 42mn 57s
Bit rate mode : Constant
Bit rate : 384 Kbps
Channel count : 6 channels
Channel positions : Front: L C R, Side: L R, LFE
Sampling rate : 48.0 KHz
Bit depth : 16 bits
Compression mode : Lossy
Delay relative to video : 75ms
Stream size : 118 MiB (4%)
Language : Russian
Language, more info : Clean effects
Audio #425
ID : 425 (0x1A9)
Menu ID : 12105 (0x2F49)
Format : AC-3
Format/Info : Audio Coding 3
Mode extension : CM (complete main)
Format settings, Endianness : Big
Codec ID : 6
Duration : 42mn 57s
Bit rate mode : Constant
Bit rate : 384 Kbps
Channel count : 6 channels
Channel positions : Front: L C R, Side: L R, LFE
Sampling rate : 48.0 KHz
Bit depth : 16 bits
Compression mode : Lossy
Delay relative to video : 22ms
Stream size : 118 MiB (4%)
Language : English
Language, more info : Clean effects

Скриншоты


_________________
Показать сообщения:    

Текущее время: Сегодня 23:00

Часовой пояс: GMT



Вы не можете начинать темы
Вы не можете отвечать на сообщения
Вы не можете редактировать свои сообщения
Вы не можете удалять свои сообщения
Вы не можете голосовать в опросах
Вы не можете прикреплять файлы к сообщениям
Вы не можете скачивать файлы
Наши партнеры: интернет магазин Ивановского трикотажа textilla.ru