Взгляд изнутри: Вторая мировая война (Фильм 1) / Inside [2012, Документальный, SATRip] :: Ивановский Торрент трекер
Важное объявление!
У Нас Все раздачи мультитрекерные, при нуле пиров в релизах, можете смело вставать на закачку!
Статистика раздачи
Размер:     |    Зарегистрирован:     |    Скачан:     |   
Нет
 
     
 
 
Автор Сообщение

HUNTER

Стаж:
4 года 11 месяцев
Сообщений:
66052

Репутация: 101

[+] [-]
Вне форума [Профиль] [ЛС]

Взгляд изнутри: Вторая мировая война (Фильм 1) / Inside
Год выпуска: 2012
Страна: США
Жанр: Документальный
Продолжительность: 00:45:02
Перевод: Профессиональный (одноголосый)
Описание: Новая передача на National Geographic посвященная Второй мировой войне. Вспомните тех кому вы обязаны. Они никогда не забудут ужасы этой войны. Рассказ о периоде с сентября 1933 года, когда Гитлер выступил с обращением к нацистской партии в Нюрнберге, до июня 1942 года и битвы за Мидуэй.
Качество: SATRip
Формат: AVI
Видео кодек: XviD
Аудио кодек: MP3
Видео: 704x400 (1.76:1), 25 fps, XviD build 65 ~1523 kbps avg
Аудио: 48 kHz, MPEG Layer 3, 2 ch, ~128.00 kbps avg

MI

ОбщееПолное имя : E:\Downloads\55\Vzgljad.iznutri.Vtoraja.mirovaja.vojna.(01).2012.SATRip.aviФормат : AVIФормат/Информация : Audio Video InterleaveРазмер файла : 534 МбайтПродолжительность : 45 м.Общий поток : 1661 Кбит/секПрограмма кодирования : VirtualDubMod 1.5.10.3 | www.virtualdub-fr.org || (build 2550/release)Библиотека кодирования : VirtualDubMod build 2550/release
ВидеоИдентификатор : 0Формат : MPEG-4 VisualПрофиль формата : Advanced Simple@L5Параметр BVOP формата : 2Параметр QPel формата : НетПараметр GMC формата : Без точки переходаПараметр матрицы формата : Default (MPEG)Идентификатор кодека : XVIDИдентификатор кодека/Подсказка : XviDПродолжительность : 45 м.Битрейт : 1523 Кбит/секШирина : 704 пикс.Высота : 400 пикс.Соотношение сторон : 16:9Частота кадров : 25,000 кадр/секЦветовое пространство : YUVПодвыборка цветности : 4:2:0Битовая глубина : 8 битТип развёртки : ПрогрессивнаяМетод сжатия : С потерямиБит/(Пиксели*Кадры) : 0.216Размер потока : 490 Мбайт (92%)Библиотека кодирования : XviD 65
АудиоИдентификатор : 1Формат : MPEG AudioВерсия формата : Version 1Профиль формата : Layer 3Режим : Joint stereoИдентификатор кодека : 55Идентификатор кодека/Подсказка : MP3Продолжительность : 45 м.Вид битрейта : ПостоянныйБитрейт : 128 Кбит/секКаналы : 2 каналаЧастота : 48,0 КГцМетод сжатия : С потерямиРазмер потока : 41,2 Мбайт (8%)Выравнивание : Соединение по промежуткамПродолжительность промежутка : 40 мс. (1,00 видеокадр)Время предзагрузки промежутка : 504 ms
Релиз: РиперАм

Скриншоты


_________________
Показать сообщения:    

Текущее время: Сегодня 21:03

Часовой пояс: GMT



Вы не можете начинать темы
Вы не можете отвечать на сообщения
Вы не можете редактировать свои сообщения
Вы не можете удалять свои сообщения
Вы не можете голосовать в опросах
Вы не можете прикреплять файлы к сообщениям
Вы не можете скачивать файлы