Вечер в мюзик-холле / A Night in the Show (Чарльз Чаплин / Charles Chaplin) [1915, США, короткометражный, комедия, BDRip 720p] VO + Original Eng + Sub Rus :: Ивановский Торрент трекер
Важное объявление!
У Нас Все раздачи мультитрекерные, при нуле пиров в релизах, можете смело вставать на закачку!
Статистика раздачи
Размер:     |    Зарегистрирован:     |    Скачан:     |   
Нет
 
     
 
 
Автор Сообщение

HUNTER

Стаж:
4 года 11 месяцев
Сообщений:
66052

Репутация: 101

[+] [-]
Вне форума [Профиль] [ЛС]

Вечер в мюзик-холле / A Night in the Show________________________________________________________________________________________
Страна: США
Жанр: короткометражный, комедия
Год выпуска: 1915
Продолжительность: 00:25:06
Перевод: Профессиональный (одноголосый закадровый)
Оригинальная аудиодорожка: английский
Cубтитры: русские
Режиссер: Чарльз Чаплин / Charles Chaplin
В ролях: Чарльз Чаплин, Филлис Аллен, Ллойд Бэйкон, Лоуренс А. Боус, Фрэнк Дж. Коулмэн, Фред Гудвинс, Чарльз Инсли, Бад Джеймисон, Джеймс Т. Келли
Описание: Щеголь мистер Пест является на представление в мюзик-холл. После некоторых поисков своего места он оказывается в первом ряду и вскоре начинает потасовку с дирижёром...
________________________________________________________________________________________

Тип релиза: BDRip 720p (Исходник: [url=viewtopic.php?t=5052867]BDRemux[/url])
Контейнер: MKV
Видео: 960x720 at 23.976 fps, x264@L4.1, crf=16.5, ~8500 kbps avg
Аудио 1: Russian: 48 kHz, AC3, 2/0 (L,R) ch, ~192 kbps avg |Одноголосый закадровый|
Аудио 2: English: 48 kHz, AC3, 2/0 (L,R) ch, ~192 kbps avg
Cубтитры: Russian

MediaInfo + x264

x264 [info]: frame I:229 Avg QP:17.71 size:114170
x264 [info]: frame P:5832 Avg QP:19.31 size: 76146
x264 [info]: frame B:30048 Avg QP:20.56 size: 37777
x264 [info]: consecutive B-frames: 1.7% 0.4% 2.8% 8.4% 10.3% 14.3% 15.3% 11.4% 30.2% 0.9% 4.5%
General
Unique ID : 204640398818178640073355818579061604363 (0x99F44EA41A9CE35EBDAB22CAD6F7800B)
Complete name : D:\A.Night.in.the.Show.1915.Criterion.BDRip.720p.Rus.Eng.mkv
Format : Matroska
Format version : Version 4 / Version 2
File size : 1.56 GiB
Duration : 25mn 6s
Overall bit rate : 8 915 Kbps
Movie name : Вечер в мюзик-холле / A Night in the Show (1915)
Encoded date : UTC 2016-02-23 16:16:41
Writing application : mkvmerge v8.9.0 ('Father Daughter') 64bit
Writing library : libebml v1.3.3 + libmatroska v1.4.4
Cover : Yes
Attachments : cover.jpg / log.txt
Video
ID : 1
Format : AVC
Format/Info : Advanced Video Codec
Format profile : High@L4.1
Format settings, CABAC : Yes
Format settings, ReFrames : 12 frames
Codec ID : V_MPEG4/ISO/AVC
Duration : 25mn 6s
Bit rate : 8 527 Kbps
Width : 960 pixels
Height : 720 pixels
Display aspect ratio : 4:3
Frame rate mode : Constant
Frame rate : 23.976 (24000/1001) fps
Color space : YUV
Chroma subsampling : 4:2:0
Bit depth : 8 bits
Scan type : Progressive
Bits/(Pixel*Frame) : 0.515
Stream size : 1.50 GiB (96%)
Title : Вечер в мюзик-холле / A Night in the Show (1915) BDRip 720p -=Kasparas=-
Writing library : x264 core 148 r2665kMod a01e339
Encoding settings : cabac=1 / ref=12 / deblock=1:-3:-3 / analyse=0x3:0x133 / me=umh / subme=11 / psy=1 / fade_compensate=0.00 / psy_rd=1.00:0.00 / mixed_ref=1 / me_range=32 / chroma_me=1 / trellis=2 / 8x8dct=1 / cqm=0 / deadzone=21,11 / fast_pskip=1 / chroma_qp_offset=-2 / threads=6 / lookahead_threads=1 / sliced_threads=0 / nr=0 / decimate=1 / interlaced=0 / bluray_compat=0 / constrained_intra=0 / fgo=0 / bframes=10 / b_pyramid=2 / b_adapt=2 / b_bias=0 / direct=3 / weightb=1 / open_gop=0 / weightp=2 / keyint=250 / keyint_min=23 / scenecut=40 / intra_refresh=0 / rc_lookahead=60 / rc=crf / mbtree=0 / crf=16.5000 / qcomp=0.60 / qpmin=0 / qpmax=69 / qpstep=4 / vbv_maxrate=62500 / vbv_bufsize=78125 / crf_max=0.0 / nal_hrd=none / filler=0 / ip_ratio=1.40 / pb_ratio=1.30 / aq=3:0.75
Language : English
Default : Yes
Forced : No
Audio #1
ID : 2
Format : AC-3
Format/Info : Audio Coding 3
Mode extension : CM (complete main)
Format settings, Endianness : Big
Codec ID : A_AC3
Duration : 25mn 6s
Bit rate mode : Constant
Bit rate : 192 Kbps
Channel(s) : 2 channels
Channel positions : Front: L R
Sampling rate : 48.0 KHz
Frame rate : 31.250 fps (1536 spf)
Compression mode : Lossy
Stream size : 34.5 MiB (2%)
Title : Профессиональный одноголосый
Language : Russian
Default : Yes
Forced : No
Audio #2
ID : 3
Format : AC-3
Format/Info : Audio Coding 3
Mode extension : CM (complete main)
Format settings, Endianness : Big
Codec ID : A_AC3
Duration : 25mn 6s
Bit rate mode : Constant
Bit rate : 192 Kbps
Channel(s) : 2 channels
Channel positions : Front: L R
Sampling rate : 48.0 KHz
Frame rate : 31.250 fps (1536 spf)
Compression mode : Lossy
Stream size : 34.5 MiB (2%)
Language : English
Default : No
Forced : No
Text
ID : 4
Format : UTF-8
Codec ID : S_TEXT/UTF8
Codec ID/Info : UTF-8 Plain Text
Duration : 21mn 22s
Bit rate : 4 bps
Count of elements : 12
Stream size : 761 Bytes (0%)
Language : Russian
Default : No
Forced : No

Скриншоты


Сравнительные скриншоты






_________________
Показать сообщения:    

Текущее время: Сегодня 19:14

Часовой пояс: GMT



Вы не можете начинать темы
Вы не можете отвечать на сообщения
Вы не можете редактировать свои сообщения
Вы не можете удалять свои сообщения
Вы не можете голосовать в опросах
Вы не можете прикреплять файлы к сообщениям
Вы не можете скачивать файлы