Важное объявление!
У Нас Все раздачи мультитрекерные, при нуле пиров в релизах, можете смело вставать на закачку!
 
Автор Сообщение

HUNTER

Стаж:
4 года 7 месяцев
Сообщений:
61614

Репутация: 101

[+] [-]
Вне форума [Профиль] [ЛС]

Вечеринка / The Party
Страна: США
Студия: The Mirisch Corporation
Жанр: Комедия
Год выпуска: 1968
Продолжительность: 01:39:04
Перевод 1: Профессиональный (двухголосый закадровый)
Перевод 2: Профессиональный (двухголосый закадровый) - НТВ+
Перевод 3: Авторский (одноголосый закадровый) - П. Карцев
Cубтитры: английские
Оригинальная аудиодорожка: английский
Режиссер: Блэйк Эдвардс / Blake Edwards
В ролях: Питер Селлерс, Клодин Лонже, Наталья Борисова, Джин Карсон, Мардж Чемпьон, Эл Чекко, Коринн Коул, Дик Крокетт, Фрэнсис Дэвис, Дэниэлла Де Мец, Херберт Эллис, Пол Феррара, Стив Франкен, Кейт Грин (Peter Sellers, Claudine Longet, Natalia Borisova, Jean Carson, Marge Champion, Al Checco, Corinne Cole, Dick Crockett, Frances Davis, Danielle De Metz, Herbert Ellis, Paul Ferrara, Steve Franken, Kathe Green)
Описание: Во время съёмок дорогостоящей сцены исторического боевика из-за одного болвана всё пошло насмарку. Получив "пистон" от продюсера, он идет к шефу студии за дальнейшим нагоняем, а ему по ошибке вручают приглашение на вечеринку в доме босса. Для того чтобы понять, как один актёр мог превратить вечеринку в полтора часа истерического смеха, нужно знать актёра Питера Селлерса. (Иванов М.)
Доп. информация: Автор рипа - AmPirCo. Добавлены три русские дорожки: двухголосый перевод неизвестного происхождения, взятый из раздачи JUt, двухголосый перевод НТВ+ (перевод Ю. Сербина), любезно предоставленный Mark20100, и авторский перевод П. Карцева, любезно предоставленный motel. Большое спасибо всем предоставившим материалы! Сохранено разбиение на главы оригинального BD.
Сэмпл
Тип релиза: BDRip 720p
Контейнер: MKV
Видео: 1280x544p (2,35:1), 23,976 fps, x264, 4926 kbps
Аудио 1: Russian - DVO (Dolby AC3, 2 ch) 192 Kbps / 48 000 Hz
Аудио 2: Russian - НТВ+ (Dolby AC3, 2 ch) 192 Kbps / 48 000 Hz
Аудио 3: Russian - Карцев (Dolby AC3, 2 ch) 192 Kbps / 48 000 Hz
Аудио 4: English (DTS, 2 ch) 1509 Kbps / 48 000 Hz
Субтитры: English

MediaInfo

Уникальный идентификатор : 206762890963810119280930251764518608841 (0x9B8D15954F27533D8DFD6E894B8FDFC9)
Полное имя : The.Party.(1968).BDRip.720p.x264.RUS.AC3.ENG.DTS.mkv
Формат : Matroska
Версия формата : Version 4 / Version 2
Размер файла : 4,85 Гбайт
Продолжительность : 1 ч. 39 м.
Общий поток : 7015 Кбит/сек
Название фильма : The Party (1968) BDRip 720p
Дата кодирования : UTC 2014-09-27 17:25:57
Программа кодирования : mkvmerge v7.2.0 ('On Every Street') 32bit built on Sep 13 2014 15:42:11
Библиотека кодирования : libebml v1.3.0 + libmatroska v1.4.1
DURATION : 01:39:04.032000000
NUMBER_OF_FRAMES : 185751
NUMBER_OF_BYTES : 142656768
_STATISTICS_WRITING_APP : mkvmerge v7.2.0 ('On Every Street') 32bit built on Sep 13 2014 15:42:11
_STATISTICS_WRITING_DATE_UTC : 2014-09-27 17:25:57
_STATISTICS_TAGS : BPS DURATION NUMBER_OF_FRAMES NUMBER_OF_BYTES
Видео
Идентификатор : 1
Формат : AVC
Формат/Информация : Advanced Video Codec
Профиль формата : High@L4.1
Параметр CABAC формата : Да
Параметр ReFrames формата : 9 кадров
Идентификатор кодека : V_MPEG4/ISO/AVC
Продолжительность : 1 ч. 39 м.
Битрейт : 4926 Кбит/сек
Ширина : 1280 пикселей
Высота : 544 пикселя
Соотношение сторон : 2,35:1
Режим частоты кадров : Постоянный
Частота кадров : 23,976 кадра/сек
Цветовое пространство : YUV
Субдискретизация насыщенности : 4:2:0
Битовая глубина : 8 бит
Тип развёртки : Прогрессивная
Бит/(Пиксели*Кадры) : 0.295
Размер потока : 3,31 Гбайт (68%)
Библиотека кодирования : x264 core 142 r2431 ac76440
Настройки программы : cabac=1 / ref=9 / deblock=1:-3:-3 / analyse=0x3:0x113 / me=umh / subme=9 / psy=1 / psy_rd=1.10:0.00 / mixed_ref=1 / me_range=32 / chroma_me=1 / trellis=2 / 8x8dct=1 / cqm=0 / deadzone=21,11 / fast_pskip=0 / chroma_qp_offset=-2 / threads=6 / lookahead_threads=1 / sliced_threads=0 / nr=0 / decimate=1 / interlaced=0 / bluray_compat=0 / constrained_intra=0 / bframes=6 / b_pyramid=2 / b_adapt=2 / b_bias=0 / direct=3 / weightb=1 / open_gop=0 / weightp=2 / keyint=240 / keyint_min=23 / scenecut=40 / intra_refresh=0 / rc_lookahead=50 / rc=2pass / mbtree=0 / bitrate=4926 / ratetol=1.0 / qcomp=0.60 / qpmin=10 / qpmax=51 / qpstep=4 / cplxblur=20.0 / qblur=0.5 / vbv_maxrate=62500 / vbv_bufsize=78125 / nal_hrd=none / filler=0 / ip_ratio=1.40 / pb_ratio=1.30 / aq=1:1.00
Язык : English
Default : Да
Forced : Нет
DURATION : 01:39:03.521000000
NUMBER_OF_FRAMES : 142502
NUMBER_OF_BYTES : 3660662371
_STATISTICS_WRITING_APP : mkvmerge v7.2.0 ('On Every Street') 32bit built on Sep 13 2014 15:42:11
_STATISTICS_WRITING_DATE_UTC : 2014-09-27 17:25:57
_STATISTICS_TAGS : BPS DURATION NUMBER_OF_FRAMES NUMBER_OF_BYTES
Аудио #1
Идентификатор : 2
Формат : AC-3
Формат/Информация : Audio Coding 3
Расширение режима : CM (complete main)
Параметр Endianness формата : Big
Идентификатор кодека : A_AC3
Продолжительность : 1 ч. 39 м.
Вид битрейта : Постоянный
Битрейт : 192 Кбит/сек
Каналы : 2 канала
Расположение каналов : Front: L R
Частота : 48,0 КГц
Битовая глубина : 16 бит
Метод сжатия : С потерями
Размер потока : 136 Мбайт (3%)
Заголовок : DVO
Язык : Russian
Default : Да
Forced : Нет
Аудио #2
Идентификатор : 3
Формат : AC-3
Формат/Информация : Audio Coding 3
Расширение режима : CM (complete main)
Параметр Endianness формата : Big
Идентификатор кодека : A_AC3
Продолжительность : 1 ч. 39 м.
Вид битрейта : Постоянный
Битрейт : 192 Кбит/сек
Каналы : 2 канала
Расположение каналов : Front: L R
Частота : 48,0 КГц
Битовая глубина : 16 бит
Метод сжатия : С потерями
Размер потока : 136 Мбайт (3%)
Заголовок : НТВ+
Язык : Russian
Default : Нет
Forced : Нет
Аудио #3
Идентификатор : 4
Формат : AC-3
Формат/Информация : Audio Coding 3
Расширение режима : CM (complete main)
Параметр Endianness формата : Big
Идентификатор кодека : A_AC3
Продолжительность : 1 ч. 39 м.
Вид битрейта : Постоянный
Битрейт : 192 Кбит/сек
Каналы : 2 канала
Расположение каналов : Front: L R
Частота : 48,0 КГц
Битовая глубина : 16 бит
Метод сжатия : С потерями
Размер потока : 136 Мбайт (3%)
Заголовок : Карцев
Язык : Russian
Default : Нет
Forced : Нет
Аудио #4
Идентификатор : 5
Формат : DTS
Формат/Информация : Digital Theater Systems
Режим : 16
Параметр Endianness формата : Big
Идентификатор кодека : A_DTS
Продолжительность : 1 ч. 39 м.
Вид битрейта : Постоянный
Битрейт : 1509 Кбит/сек
Каналы : 2 канала
Расположение каналов : Front: L R
Частота : 48,0 КГц
Битовая глубина : 16 бит
Метод сжатия : С потерями
Размер потока : 1,04 Гбайт (22%)
Заголовок : Original
Язык : English
Default : Нет
Forced : Нет
Текст
Идентификатор : 6
Формат : UTF-8
Идентификатор кодека : S_TEXT/UTF8
Идентификатор кодека/Информация : UTF-8 Plain Text
Язык : English
Default : Нет
Forced : Нет
Меню
00:00:00.000 : en:
00:07:18.312 : en:
00:16:05.464 : en:
00:37:07.975 : en:
00:49:40.102 : en:
01:01:08.706 : en:
01:18:51.768 : en:
01:33:08.749 : en:
01:39:03.145 : en:

Скриншоты


_________________
Показать сообщения:    

Текущее время: Сегодня 14:06

Часовой пояс: GMT



Вы не можете начинать темы
Вы не можете отвечать на сообщения
Вы не можете редактировать свои сообщения
Вы не можете удалять свои сообщения
Вы не можете голосовать в опросах
Вы не можете прикреплять файлы к сообщениям
Вы не можете скачивать файлы
Наши партнеры: интернет магазин Ивановского трикотажа textilla.ru