Важное объявление!
У Нас Все раздачи мультитрекерные, при нуле пиров в релизах, можете смело вставать на закачку!
 
Автор Сообщение

HUNTER

Стаж:
4 года 7 месяцев
Сообщений:
61554

Репутация: 101

[+] [-]
Вне форума [Профиль] [ЛС]

-Вечеринка / Afterparty
-Страна: Испания
Студия: Llanero Films, Telecinco Cinema, Telespan 2000 S.L.
Жанр: триллер, ужасы
Год выпуска: 2013
Мировая премьера: 6 апреля 2013
Российская премьера: 31 октября 2013, «UMS Film»
Украинская премьера: 31 октября 2013, «UMS Film»
Дата выхода DVD: 12 декабря 2013, «CD Land»
Продолжительность: 01:15:30
Перевод: Профессиональный (многоголосый закадровый) [Лицензия]
Cубтитры: нет
Оригинальная аудиодорожка: нет-Режиссер: Мигель Ларрайа / Miguel Larraya-В ролях: Алисия Санс, Урсула Корберо, Луис Фернандес, Андреа Дуэсо, Давид Сеихо, Фернандо Луечес, Ева Угарте, Хуан Бланко, Росио Леон, Ана Кальдас...-Описание: Карлос — телезвезда и кумир молодёжи, развлекается на дикой вечеринке с самыми прекрасными девушками. На следующее утро он просыпается в неизвестном заброшенном доме с тремя девушками, с которыми развлекался прошлой ночью. Молодые люди не могут связаться с внешним миром. Вскоре они осознают, что не одни в этом таинственном доме и понимают, что, возможно, им никогда оттуда не выбраться…-Бонусы: нет- -Качество: DVD5 R5
Формат: DVD-Video
Видео кодек: MPEG2
Аудио кодек: AC3
Видео: PAL 16:9 (720x576(0.658)) MPEG Video, 25,000 кадр/сек, 6818 Кбит/сек
Аудио: Russian (Dolby AC3, 6 ch) 256 Кбит/сек, 48,0 КГц--

DVDInfo

Title: Vecherinka.2013.DVD5
Size: 3.72 Gb ( 3 902 720,00 KBytes ) - DVD-5
Enabled regions: 1, 2, 3, 4, 5, 6, 7, 8
VTS_01 :
Play Length: 00:00:19
Video: PAL 16:9 (720x576) VBR, Auto Pan&Scan, Auto Letterboxed
Audio:
Not specified (Dolby AC3, 2 ch)
VTS_02 :
Play Length: 01:15:30
Video: PAL 16:9 (720x576) VBR, Auto Pan&Scan, Auto Letterboxed
Audio:
Not specified (Dolby AC3, 6 ch)
* Menus Information *
VIDEO_TS Menu
Video:
PAL 16:9 (720x576) VBR
Auto Pan&Scan, Auto Letterboxed
Russian Language Unit :
Title Menu
VTS_01 Menu
Video:
PAL 16:9 (720x576) VBR
Auto Pan&Scan, Auto Letterboxed
Audio:
Not specified (Dolby AC3, 6 ch)
Russian Language Unit :
Root Menu
VTS_02 Menu
Video:
PAL 4:3 (720x576) VBR
Russian Language Unit :
Root Menu

MediaInfo

Общее
Полное имя : D:\Новинки 2014\Vecherinka.2013.DVD5\VIDEO_TS\VTS_02_1.VOB
Формат : MPEG-PS
Размер файла : 1024 Мбайт
Продолжительность : 19 м.
Режим общего битрейта : Переменный
Общий поток : 7217 Кбит/сек
Видео
Идентификатор : 224 (0xE0)
Формат : MPEG Video
Версия формата : Version 2
Профиль формата : Main@Main
Параметр BVOP формата : Да
Параметр матрицы формата : Выборочная
Параметр GOP формата : M=3, N=15
Продолжительность : 19 м.
Вид битрейта : Переменный
Битрейт : 6818 Кбит/сек
Максимальный битрейт : 9000 Кбит/сек
Ширина : 720 пикселей
Высота : 576 пикселей
Соотношение сторон : 16:9
Частота кадров : 25,000 кадров/сек
Стандарт вещания : PAL
Цветовое пространство : YUV
Субдискретизация насыщенности : 4:2:0
Битовая глубина : 8 бит
Тип развёртки : Чересстрочная
Порядок развёртки : Верхнее поле первое
Метод сжатия : С потерями
Бит/(Пиксели*Кадры) : 0.658
Временной код первого кадра : 00:00:00:00
Оригинал временного кода : Group of pictures header
Размер потока : 967 Мбайт (94%)
Аудио
Идентификатор : 189 (0xBD)-128 (0x80)
Формат : AC-3
Формат/Информация : Audio Coding 3
Расширение режима : CM (complete main)
Параметр Endianness формата : Big
Режим смешивания : DVD-Video
Продолжительность : 19 м.
Вид битрейта : Постоянный
Битрейт : 256 Кбит/сек
Каналы : 6 каналов
Расположение каналов : Front: L C R, Side: L R, LFE
Частота : 48,0 КГц
Битовая глубина : 16 бит
Метод сжатия : С потерями
Размер потока : 36,3 Мбайт (4%)

Скриншоты меню

Скриншоты фильма


-
-Раздача от группы:

_________________
Показать сообщения:    

Текущее время: Сегодня 04:43

Часовой пояс: GMT



Вы не можете начинать темы
Вы не можете отвечать на сообщения
Вы не можете редактировать свои сообщения
Вы не можете удалять свои сообщения
Вы не можете голосовать в опросах
Вы не можете прикреплять файлы к сообщениям
Вы не можете скачивать файлы
Наши партнеры: интернет магазин Ивановского трикотажа textilla.ru