Ивановский Торрент трекер
Яндекс.Погода
 

[Цитировать]
HUNTER

Весёлые ребята --

  • Год выпуска: 2014
  • Страна: Россия
  • Жанр: Комедия
  • Продолжительность: 01:28:00
  • Перевод: Оригинал [Лицензия]
  • Субтитры: Нет
  • В ролях: Иван Дорн, Катерина Шпица, София Каштанова, Алексей Шевченков, Евгений Тихомиров, Ола Кейру, Сергей Газаров, Татьяна Лютаева, Алена Новицкая, Наталья Щукина
  • Режиссёр: Алексей Бобров

    Начинающий музыкант Костя Потехин, чтобы завоевать расположение красивой девушки, соглашается участвовать в музыкальном телевизионном конкурсе. Но участвовать нужно только со своей музыкальной группой, которой у него нет. За несколько дней ему предстоит собрать свою группу, найти надежных друзей и встретить настоящую любовь.--
  • Качество: WEBDLRip-AVC
  • Формат: MKV
  • Видео кодек: AVC
  • Аудио кодек: AC3
  • Видео: AVC at 1850 Кбит/сек, 1024х428, 23.976 fps
  • Аудио: AC3, 384 kb/s (6 ch), 48 кгц
--

MI

Код: copyText_writeLink('this.parentNode.parentNode.nextSibling.nextSibling');
Формат                                   : Matroska
Версия формата                           : Version 2
Размер файла                             : 1,44 Гбайт
Продолжительность                        : 1 ч. 32 м.
Общий поток                              : 2235 Кбит/сек
Дата кодирования                         : UTC 2014-09-18 01:03:01
Программа кодирования                    : mkvmerge v6.1.0 ('Old Devil') built on Mar  4 2013 09:10:42
Библиотека кодирования                   : libebml v1.3.0 + libmatroska v1.4.0
Видео
Идентификатор                            : 1
Формат                                   : AVC
Формат/Информация                        : Advanced Video Codec
Профиль формата                          : High@L4.1
Параметр CABAC формата                   : Да
Параметр ReFrames формата                : 8 кадров
Идентификатор кодека                     : V_MPEG4/ISO/AVC
Продолжительность                        : 1 ч. 32 м.
Битрейт                                  : 1850 Кбит/сек
Ширина                                   : 1024 пикселя
Высота                                   : 428 пикселей
Соотношение сторон                       : 2,40:1
Режим частоты кадров                     : Постоянный
Частота кадров                           : 24,000 кадра/сек
Цветовое пространство                    : YUV
Субдискретизация насыщенности            : 4:2:0
Битовая глубина                          : 8 бит
Тип развёртки                            : Прогрессивная
Бит/(Пиксели*Кадры)                      : 0.176
Размер потока                            : 1,16 Гбайт (81%)
Библиотека кодирования                   : x264 core 130 r2273 b3065e6
Настройки программы                      : cabac=1 / ref=8 / deblock=1:-1:-2 / analyse=0x3:0x133 / me=umh / subme=11 / psy=1 / psy_rd=1.00:0.10 / mixed_ref=1 / me_range=32 / chroma_me=1 / trellis=2 / 8x8dct=1 / cqm=0 / deadzone=21,11 / fast_pskip=0 / chroma_qp_offset=-3 / threads=6 / lookahead_threads=1 / sliced_threads=0 / nr=0 / decimate=1 / interlaced=0 / bluray_compat=0 / constrained_intra=0 / bframes=3 / b_pyramid=2 / b_adapt=2 / b_bias=0 / direct=3 / weightb=1 / open_gop=0 / weightp=2 / keyint=240 / keyint_min=23 / scenecut=40 / intra_refresh=0 / rc_lookahead=50 / rc=2pass / mbtree=1 / bitrate=1850 / ratetol=1.0 / qcomp=0.60 / qpmin=0 / qpmax=69 / qpstep=4 / cplxblur=20.0 / qblur=0.5 / ip_ratio=1.40 / aq=1:1.00
Default                                  : Да
Forced                                   : Нет
Аудио
Идентификатор                            : 2
Формат                                   : AC-3
Формат/Информация                        : Audio Coding 3
Расширение режима                        : CM (complete main)
Параметр Endianness формата              : Big
Идентификатор кодека                     : A_AC3
Продолжительность                        : 1 ч. 32 м.
Вид битрейта                             : Постоянный
Битрейт                                  : 384 Кбит/сек
Каналы                                   : 6 каналов
Расположение каналов                     : Front: L C R, Side: L R, LFE
Частота                                  : 48,0 КГц
Битовая глубина                          : 16 бит
Метод сжатия                             : С потерями
Размер потока                            : 253 Мбайт (17%)
Default                                  : Да
Forced                                   : Нет

Трейлер

Скриншоты

-Источник:
Показать сообщения:    

Текущее время: 17-Окт 14:12

Часовой пояс: UTC - 1


Вы не можете начинать темы
Вы не можете отвечать на сообщения
Вы не можете редактировать свои сообщения
Вы не можете удалять свои сообщения
Вы не можете голосовать в опросах
Вы не можете прикреплять файлы к сообщениям
Вы не можете скачивать файлы

!ВНИМАНИЕ!
Сайт не предоставляет электронные версии произведений, а занимается лишь коллекционированием и каталогизацией ссылок, присылаемых и публикуемых на форуме нашими читателями. Если вы являетесь правообладателем какого-либо представленного материала и не желаете, чтобы ссылка на него находилась в нашем каталоге, свяжитесь с нами, и мы незамедлительно удалим ее. Файлы для обмена на трекере предоставлены пользователями сайта, и администрация не несет ответственности за их содержание. Просьба не заливать файлы, защищенные авторскими правами, а также файлы нелегального содержания!