Ивановский Торрент трекер
Яндекс.Погода
Статистика раздачи
Размер:  5.17 GB   |    Зарегистрирован:  1 год 9 месяцев   |    Скачан:  0 раз

Полного источника не было: Никогда

 
     
 
 
 

[Цитировать]
HUNTER

Весомое чувство- -Страна: Россия
Жанр: мелодрама
Год выпуска: 2015
Производство: «Кинокомпания Русское»
Продолжительность: 01:27:19
Оригинальная аудиодорожка: русский
Cубтитры: нет-Режиссер: Алексей Карелин-В ролях:
Елена Шилова (II), Татьяна Чердынцева, Владимир Фекленко, Александр Павлов (IV)-Описание:
Любе слегка за тридцать. Она мила, обаятельна, добра, отличная хозяйка и кулинар.
От счастливой и устроенной семейной жизни женщина полнеет, что перестает устраивать ее мужа Семена.
В этом Люба убеждается, застав супруга в объятиях красотки модельной комплекции.-Возраст: 12+-Качество: HDTV (1080i)
Формат: TS
Видео кодек: AVC
Аудио кодек: MPEG Audio

Видео: AVC, 1920 х 1080 (16:9), 25,000 кадр/сек, 7 869 Кбит/сек, 0.152 bit/pixel
Аудио: MPEG Audio 2, 48000 Hz, 192 Kbps, 2 канала
-

MediaInfo

General
ID : 1 (0x1)
Complete name : D:\Раздачи\Весомое чувство HDTV (1080i)\Весомое чувство HDTV (1080i).ts
Format : MPEG-TS
File size : 5.17 GiB
Duration : 1h 27mn
Overall bit rate mode : Variable
Overall bit rate : 8 482 Kbps
Video
ID : 2911 (0xB5F)
Menu ID : 1009 (0x3F1)
Format : AVC
Format/Info : Advanced Video Codec
Format profile : High@L4
Format settings, CABAC : Yes
Format settings, ReFrames : 4 frames
Codec ID : 27
Duration : 1h 27mn
Bit rate : 7 869 Kbps
Width : 1 920 pixels
Height : 1 080 pixels
Display aspect ratio : 16:9
Frame rate : 25.000 fps
Color space : YUV
Chroma subsampling : 4:2:0
Bit depth : 8 bits
Scan type : MBAFF
Scan type, store method : Interleaved fields
Scan order : Top Field First
Bits/(Pixel*Frame) : 0.152
Stream size : 4.80 GiB (93%)
Audio
ID : 2912 (0xB60)
Menu ID : 1009 (0x3F1)
Format : MPEG Audio
Format version : Version 1
Format profile : Layer 2
Mode : Joint stereo
Mode extension : Intensity Stereo + MS Stereo
Codec ID : 3
Duration : 1h 27mn
Bit rate mode : Constant
Bit rate : 192 Kbps
Channel(s) : 2 channels
Sampling rate : 48.0 KHz
Compression mode : Lossy
Stream size : 120 MiB (2%)
Language : Russian

Скриншоты


-Раздаю до первых 5-ти скачавших, на раздачи не возвращаюсь...-
[iv-torrents.ru].t55163.torrent
Торрент: Зарегистрирован [ 2016-03-14 21:34 ] · C19C563359B0ECD1EB7BEC4D014AD52920E861CF

Скачать .torrent

Скачать

26 KB

Статус: проверено
Скачан: 0 раз
Размер: 5.17 GB
terms.php


Показать сообщения:    

Текущее время: 15-Дек 00:58

Часовой пояс: UTC ± 0


Вы не можете начинать темы
Вы не можете отвечать на сообщения
Вы не можете редактировать свои сообщения
Вы не можете удалять свои сообщения
Вы не можете голосовать в опросах
Вы не можете прикреплять файлы к сообщениям
Вы можете скачивать файлы

!ВНИМАНИЕ!
Сайт не предоставляет электронные версии произведений, а занимается лишь коллекционированием и каталогизацией ссылок, присылаемых и публикуемых на форуме нашими читателями. Если вы являетесь правообладателем какого-либо представленного материала и не желаете, чтобы ссылка на него находилась в нашем каталоге, свяжитесь с нами, и мы незамедлительно удалим ее. Файлы для обмена на трекере предоставлены пользователями сайта, и администрация не несет ответственности за их содержание. Просьба не заливать файлы, защищенные авторскими правами, а также файлы нелегального содержания!