Важное объявление!
У Нас Все раздачи мультитрекерные, при нуле пиров в релизах, можете смело вставать на закачку!
 
Автор Сообщение

HUNTER

Стаж:
4 года 9 месяцев
Сообщений:
65033

Репутация: 101

[+] [-]
Вне форума [Профиль] [ЛС]

-Весна на Заречной улице-
-Страна: СССР
Жанр: мелодрама
Год выпуска: 1956
Продолжительность: 01:34:00
Перевод: Не требуется
Режиссер: Марлен Хуциев, Феликс Миронер-В ролях:
Нина Иванова, Николай Рыбников, Владимир Гуляев, Валентина Пугачева, Геннадий Юхтин, Римма Шорохова, Николай Ключнев, Марина Гаврилко, Юрий Белов, Валентин Брылеев и др.
-Описание:
История любви юной учительницы школы рабочей молодежи и ее ученика - одна из самых популярных отечественных мелодрам. Герой фильма, парень лихой и самоуверенный, лучший сталевар завода, не привык к отказам женщин. И вдруг его домогательства получают отпор!..
Поначалу он пытается играть в безразличие. Но проходит время - и он вдруг понимает, что к нему впервые пришло настоящее, глубокое чувство.
-Качество: BDRip 720p
Формат: MKV
Видео: 996x720 at 23.976 fps, x264@L4.1, crf, ~5466 kbps avg
Аудио: Russian: 48 kHz, AC3, 3/2 (L,C,R,l,r) + LFE ch, ~448.00 kbps avg
Аудио: Russian: 48 kHz, AC3, 1/0 (C) ch, ~224.00 kbps avg
Субтитры: Russian, English
Цитата:

Сохранены оригинальные чаптеры как на Blu-ray.
-Релиз: -
-

Скриншоты


MediaInfo

Код:
General
Complete name                    : E:\Vesna.na.Zarechnoy.ulitse.720p.BluRay.Rus.HDCLUB.mkv
Format                           : Matroska
File size                        : 4.03 GiB
Duration                         : 1h 34mn
Overall bit rate                 : 6 141 Kbps
Movie name                       : Весна на Заречной улице (1956) - Release for HDCLUB
Encoded date                     : UTC 2010-12-22 21:23:37
Writing application              : mkvmerge v4.4.0 ('Die Wiederkehr') сборка от Oct 31 2010 21:52:48
Writing library                  : libebml v1.0.0 + libmatroska v1.0.0
Video
ID                               : 1
Format                           : AVC
Format/Info                      : Advanced Video Codec
Format profile                   : High@L4.1
Format settings, CABAC           : Yes
Format settings, ReFrames        : 7 frames
Muxing mode                      : Container profile=Unknown@4.1
Codec ID                         : V_MPEG4/ISO/AVC
Duration                         : 1h 33mn
Bit rate                         : 5 346 Kbps
Width                            : 996 pixels
Height                           : 720 pixels
Display aspect ratio             : 1.383
Frame rate                       : 23.976 fps
Resolution                       : 8 bits
Colorimetry                      : 4:2:0
Scan type                        : Progressive
Bits/(Pixel*Frame)               : 0.311
Stream size                      : 3.51 GiB (87%)
Title                            : Весна на Заречной улице (1956) - Release for HDCLUB
Writing library                  : x264 core 112 r1834 a51816a
Encoding settings                : cabac=1 / ref=7 / deblock=1:-3:-3 / analyse=0x3:0x113 / me=umh / subme=10 / psy=1 / psy_rd=1.00:0.00 / mixed_ref=1 / me_range=32 / chroma_me=1 / trellis=2 / 8x8dct=1 / cqm=0 / deadzone=21,11 / fast_pskip=0 / chroma_qp_offset=-2 / threads=6 / sliced_threads=0 / nr=0 / decimate=1 / interlaced=0 / constrained_intra=0 / bframes=8 / b_pyramid=2 / b_adapt=2 / b_bias=0 / direct=1 / weightb=1 / open_gop=0 / weightp=2 / keyint=250 / keyint_min=23 / scenecut=40 / intra_refresh=0 / rc=crf / mbtree=0 / crf=16.2 / qcomp=0.60 / qpmin=10 / qpmax=51 / qpstep=4 / ip_ratio=1.40 / pb_ratio=1.30 / aq=1:0.80
Language                         : Russian
Audio #1
ID                               : 2
Format                           : AC-3
Format/Info                      : Audio Coding 3
Codec ID                         : A_AC3
Duration                         : 1h 34mn
Bit rate mode                    : Constant
Bit rate                         : 448 Kbps
Channel(s)                       : 6 channels
Channel positions                : Front: L C R, Surround: L R, LFE
Sampling rate                    : 48.0 KHz
Stream size                      : 301 MiB (7%)
Title                            : AC3 5.1ch 448 kbps
Language                         : Russian
Audio #2
ID                               : 3
Format                           : AC-3
Format/Info                      : Audio Coding 3
Codec ID                         : A_AC3
Duration                         : 1h 34mn
Bit rate mode                    : Constant
Bit rate                         : 224 Kbps
Channel(s)                       : 1 channel
Channel positions                : C
Sampling rate                    : 48.0 KHz
Stream size                      : 151 MiB (4%)
Title                            : AC3 1.0ch 224 kbps
Language                         : Russian
Text #1
ID                               : 4
Format                           : UTF-8
Codec ID                         : S_TEXT/UTF8
Codec ID/Info                    : UTF-8 Plain Text
Language                         : Russian
Text #2
ID                               : 5
Format                           : UTF-8
Codec ID                         : S_TEXT/UTF8
Codec ID/Info                    : UTF-8 Plain Text

Знаете ли вы, что...

  • Примечателен тот факт, что Нине Ивановой, сыгравшей роль учительницы Татьяны Сергеевны, после этого фильма прочили большую карьеру киноактрисы. Однако, после «Весны на Заречной улице» Нина Иванова больше практически нигде не снималась, с 1966 года совершенно порвав с кино.
  • Благодаря этому фильму в Советском Союзе впервые появилось понятие «культовое кино».

-
-

_________________
Показать сообщения:    

Текущее время: Сегодня 06:10

Часовой пояс: GMT



Вы не можете начинать темы
Вы не можете отвечать на сообщения
Вы не можете редактировать свои сообщения
Вы не можете удалять свои сообщения
Вы не можете голосовать в опросах
Вы не можете прикреплять файлы к сообщениям
Вы не можете скачивать файлы