Важное объявление!
У Нас Все раздачи мультитрекерные, при нуле пиров в релизах, можете смело вставать на закачку!
 
Автор Сообщение

HUNTER

Стаж:
4 года 6 месяцев
Сообщений:
60981

Репутация: 101

[+] [-]
Вне форума [Профиль] [ЛС]

Веселушка / Breezy
Страна: США
Студия: The Malpaso Company
Жанр: драма, мелодрама
Год выпуска: 1973
Продолжительность: 01:46:23
Перевод: Профессиональный (дублированный)
Перевод 2: Профессиональный (двухголосый закадровый)
Cубтитры: русские, английские (SDH)
Оригинальная аудиодорожка: английский
Режиссер: Клинт Иствуд / Clint Eastwood
В ролях: Уильям Холден, Кэй Ленц, Роджер С. Кармел, Марж Дюсэй, Джоан Хотчкис, Джэми Смит-Джексон, Норман Бартольд, Линн Борден, Шелли Моррисон, Дэннис Оливери
Описание: Пронзительная история любви между прожженым дельцом по продаже дорогой недвижимости и юной хиппи с плохонькой гитарой за плечами. Каждый из них одинок, но по своему, Бризи открыта и любит людей, не ожидая любви в ответ, Фрэнк любит лишь себя и дарит любовь своим женщинам только когда ему это нужно. Бризи научит Фрэнка любви, а Фрэнк подарит ей океан под названием жизнь.

Сэмпл: http://multi-up.com/1021752
Тип релиза: BDRip 1080p
Контейнер: MKV
Видео: MPEG4 Video (H264) 1920x1040 23.976fps 16.2 Mbps
Аудио: Русский DTS / 2 ch / 48.0 KHz / 447 Kbps| Blu-Ray EUR
Аудио 2: Русский AC-3 / 2 ch / 48.0 KHz / 192 Kbps| DVO
Аудио 3: Английский DTS / 2 ch / 48.0 KHz / 1 509 Kbps
Формат субтитров: softsub (SRT)

MediaInfo

General
Unique ID : 170569003649926865129435291107797041512 (0x80526529F36A1E1789B2D29EA8250168)
Complete name : C:\Users\Вика\Desktop\Breezy.1973.BDRip.1080p.x264.mkv
Format : Matroska
Format version : Version 4 / Version 2
File size : 13.6 GiB
Duration : 1h 46mn
Overall bit rate : 18.4 Mbps
Encoded date : UTC 2014-12-19 08:16:15
Writing application : mkvmerge v7.4.0 ('Circles') 64bit built on Dec 12 2014 12:19:56
Writing library : libebml v1.3.0 + libmatroska v1.4.1
DURATION : 01:46:23.382000000
NUMBER_OF_FRAMES : 598442
NUMBER_OF_BYTES : 1204065304
_STATISTICS_WRITING_APP : mkvmerge v7.4.0 ('Circles') 64bit built on Dec 12 2014 12:19:56
_STATISTICS_WRITING_DATE_UTC : 2014-12-19 08:16:15
_STATISTICS_TAGS : BPS DURATION NUMBER_OF_FRAMES NUMBER_OF_BYTES
Video
ID : 1
Format : AVC
Format/Info : Advanced Video Codec
Format profile : High@L4.1
Format settings, CABAC : Yes
Format settings, ReFrames : 4 frames
Codec ID : V_MPEG4/ISO/AVC
Duration : 1h 46mn
Bit rate : 16.2 Mbps
Width : 1 920 pixels
Height : 1 040 pixels
Display aspect ratio : 1.85:1
Frame rate mode : Constant
Frame rate : 23.976 fps
Color space : YUV
Chroma subsampling : 4:2:0
Bit depth : 8 bits
Scan type : Progressive
Bits/(Pixel*Frame) : 0.338
Stream size : 11.8 GiB (86%)
Title : MPEG-4AVC@High Profile L4.1, 24/1.001 fps @ 16200 kbps
Writing library : x264 core 142 r2453 ea0ca51
Encoding settings : cabac=1 / ref=4 / deblock=1:-3:-3 / analyse=0x3:0x133 / me=umh / subme=11 / psy=1 / psy_rd=1.00:0.00 / mixed_ref=1 / me_range=32 / chroma_me=1 / trellis=2 / 8x8dct=1 / cqm=0 / deadzone=21,11 / fast_pskip=0 / chroma_qp_offset=-2 / threads=24 / lookahead_threads=2 / sliced_threads=0 / nr=0 / decimate=0 / interlaced=0 / bluray_compat=0 / constrained_intra=0 / bframes=6 / b_pyramid=2 / b_adapt=2 / b_bias=0 / direct=3 / weightb=1 / open_gop=0 / weightp=2 / keyint=240 / keyint_min=23 / scenecut=40 / intra_refresh=0 / rc_lookahead=60 / rc=2pass / mbtree=1 / bitrate=16200 / ratetol=1.0 / qcomp=0.60 / qpmin=0 / qpmax=69 / qpstep=4 / cplxblur=20.0 / qblur=0.5 / vbv_maxrate=45000 / vbv_bufsize=45000 / nal_hrd=none / filler=0 / ip_ratio=1.40 / aq=1:0.60
Language : English
Default : Yes
Forced : No
_STATISTICS_WRITING_APP : mkvmerge v7.4.0 ('Circles') 64bit built on Dec 12 2014 12:19:56
_STATISTICS_WRITING_DATE_UTC : 2014-12-19 08:16:15
_STATISTICS_TAGS : BPS DURATION NUMBER_OF_FRAMES NUMBER_OF_BYTES
DURATION : 01:46:23.377000000
NUMBER_OF_FRAMES : 153048
NUMBER_OF_BYTES : 12926356949
Audio #1
ID : 2
Format : DTS
Format/Info : Digital Theater Systems
Mode : 16
Format settings, Endianness : Big
Codec ID : A_DTS
Duration : 1h 46mn
Bit rate mode : Constant
Bit rate : 447 Kbps
Channel(s) : 2 channels
Channel positions : Front: L R
Sampling rate : 48.0 KHz
Bit depth : 24 bits
Compression mode : Lossy
Stream size : 340 MiB (2%)
Title : Дубляж
Language : Russian
Default : Yes
Forced : No
Audio #2
ID : 3
Format : AC-3
Format/Info : Audio Coding 3
Mode extension : CM (complete main)
Format settings, Endianness : Big
Codec ID : A_AC3
Duration : 1h 46mn
Bit rate mode : Constant
Bit rate : 192 Kbps
Channel(s) : 2 channels
Channel positions : Front: L R
Sampling rate : 48.0 KHz
Bit depth : 16 bits
Compression mode : Lossy
Stream size : 146 MiB (1%)
Title : DVO
Language : Russian
Default : No
Forced : No
Audio #3
ID : 4
Format : DTS
Format/Info : Digital Theater Systems
Mode : 16
Format settings, Endianness : Big
Codec ID : A_DTS
Duration : 1h 46mn
Bit rate mode : Constant
Bit rate : 1 509 Kbps
Channel(s) : 2 channels
Channel positions : Front: L R
Sampling rate : 48.0 KHz
Bit depth : 24 bits
Compression mode : Lossy
Stream size : 1.12 GiB (8%)
Language : English
Default : No
Forced : No
Text #1
ID : 5
Format : UTF-8
Codec ID : S_TEXT/UTF8
Codec ID/Info : UTF-8 Plain Text
Language : Russian
Default : No
Forced : No
Text #2
ID : 6
Format : UTF-8
Codec ID : S_TEXT/UTF8
Codec ID/Info : UTF-8 Plain Text
Title : SDH
Language : English
Default : No
Forced : No
Menu
00:00:00.000 : en:00:00:00.000
00:05:51.560 : en:00:05:51.560
00:09:03.084 : en:00:09:03.084
00:18:30.359 : en:00:18:30.359
00:31:42.859 : en:00:31:42.859
00:37:50.393 : en:00:37:50.393
00:44:20.283 : en:00:44:20.283
00:50:41.830 : en:00:50:41.830
00:56:42.274 : en:00:56:42.274
01:01:34.649 : en:01:01:34.649
01:06:19.767 : en:01:06:19.767
01:14:38.641 : en:01:14:38.641
01:20:31.952 : en:01:20:31.952
01:25:32.419 : en:01:25:32.419
01:30:17.370 : en:01:30:17.370
01:35:22.842 : en:01:35:22.842
01:41:41.220 : en:01:41:41.220
01:45:25.110 : en:01:45:25.110

Скриншоты


_________________
Показать сообщения:    

Текущее время: Сегодня 03:06

Часовой пояс: GMT



Вы не можете начинать темы
Вы не можете отвечать на сообщения
Вы не можете редактировать свои сообщения
Вы не можете удалять свои сообщения
Вы не можете голосовать в опросах
Вы не можете прикреплять файлы к сообщениям
Вы не можете скачивать файлы
Наши партнеры: интернет магазин Ивановского трикотажа textilla.ru