Ивановский Торрент трекер
Яндекс.Погода
 

[Цитировать]
HUNTER

Версия Браунинга / The Browning Version
Страна: Великобритания
Жанр: драма
Год выпуска: 1951
Продолжительность: 01:30:17
Перевод: Профессиональный (многоголосый закадровый)
Cубтитры: английские
Оригинальная аудиодорожка: английский
Режиссер: Энтони Эсквит / Anthony Asquith
В ролях: Майкл Редгрейв, Джин Кент, Найджел Патрик, Уилфрид Хайд-Уайт, Брайан Смит, Билл Треверс, Рональд Ховард, Иван Самсон, Жозефин Миддлтон
Описание: Человеческая драма стареющего профессора латыни, которому изменяет жена с другим преподавателем его же колледжа. Профессора не любят и боятся его ученики, ему отказывают в заслуженной пенсии, а вместо любимой работы предлагают унизительный пост. Жена в лицо называет неудачником, и всю свою жизнь он считает полным провалом. Но однажды все меняется
Доп. информация:


За дорогу с переводом спасибо Гостю (Polinka?) (к сожалению, дорожка неважного качества)
Сэмпл: http://sendfile.su/1034708
Тип релиза: WEB-DL 720p
Контейнер: MKV
Видео: AVC, 944x720, L3.1, 23.976fps, 4130kbps
Аудио 1: Russian: AC3, 48000Hz, 2ch, 192kbps
Аудио 2: English: AC3, 48000Hz, 1ch, 192kbps - DVD
Аудио 3: English: AAC, 48000Hz, 2ch, 122kbps - WEB-DL
Аудио 4: English: AC3, 48000Hz, 1ch, 192kbps - Commentary with historian Bruce Eder
Формат субтитров: softsub (SRT)

MediaInfo

Общее
Уникальный идентификатор : 209853588881003786386102370867511282621 (0x9DE054C16AAFF313B50018FB3063CBBD)
Полное имя : T:\The Browning Version (WEB-DL 720p).mkv
Формат : Matroska
Версия формата : Version 4 / Version 2
Размер файла : 3,04 Гбайт
Продолжительность : 1 ч. 30 м.
Общий поток : 4828 Кбит/сек
Дата кодирования : UTC 2014-10-13 07:18:57
Программа кодирования : mkvmerge v6.9.1 ('Blue Panther') 64bit built on Apr 18 2014 18:23:38
Библиотека кодирования : libebml v1.3.0 + libmatroska v1.4.1
Видео
Идентификатор : 1
Формат : AVC
Формат/Информация : Advanced Video Codec
Профиль формата : Main@L3.1
Параметр CABAC формата : Нет
Параметр ReFrames формата : 2 кадра
Идентификатор кодека : V_MPEG4/ISO/AVC
Продолжительность : 1 ч. 30 м.
Ширина : 944 пикселя
Высота : 720 пикселей
Соотношение сторон : 4:3
Режим частоты кадров : Постоянный
Частота кадров : 23,976 кадра/сек
Цветовое пространство : YUV
Субдискретизация насыщенности : 4:2:0
Битовая глубина : 8 бит
Тип развёртки : Прогрессивная
Язык : English
Default : Да
Forced : Нет
Основные цвета : BT.709
Характеристики трансфера : BT.709
Коэффициенты матрицы : BT.709
Аудио #1
Идентификатор : 2
Формат : AC-3
Формат/Информация : Audio Coding 3
Расширение режима : CM (complete main)
Параметр Endianness формата : Big
Идентификатор кодека : A_AC3
Продолжительность : 1 ч. 30 м.
Вид битрейта : Постоянный
Битрейт : 192 Кбит/сек
Каналы : 2 канала
Расположение каналов : Front: L R
Частота : 48,0 КГц
Битовая глубина : 16 бит
Метод сжатия : С потерями
Размер потока : 124 Мбайт (4%)
Язык : Russian
Default : Да
Forced : Нет
Аудио #2
Идентификатор : 3
Формат : AC-3
Формат/Информация : Audio Coding 3
Расширение режима : CM (complete main)
Параметр Endianness формата : Big
Идентификатор кодека : A_AC3
Продолжительность : 1 ч. 30 м.
Вид битрейта : Постоянный
Битрейт : 192 Кбит/сек
Каналы : 1 канал
Расположение каналов : Front: C
Частота : 48,0 КГц
Битовая глубина : 16 бит
Метод сжатия : С потерями
Размер потока : 124 Мбайт (4%)
Заголовок : DVD
Язык : English
Default : Нет
Forced : Нет
Аудио #3
Идентификатор : 4
Формат : AAC
Формат/Информация : Advanced Audio Codec
Профиль формата : LC
Идентификатор кодека : A_AAC
Продолжительность : 1 ч. 30 м.
Каналы : 2 канала
Расположение каналов : Front: L R
Частота : 48,0 КГц
Метод сжатия : С потерями
Заголовок : WEB-DL
Язык : English
Default : Нет
Forced : Нет
Аудио #4
Идентификатор : 5
Формат : AC-3
Формат/Информация : Audio Coding 3
Расширение режима : CM (complete main)
Параметр Endianness формата : Big
Идентификатор кодека : A_AC3
Продолжительность : 1 ч. 30 м.
Вид битрейта : Постоянный
Битрейт : 192 Кбит/сек
Каналы : 1 канал
Расположение каналов : Front: C
Частота : 48,0 КГц
Битовая глубина : 16 бит
Метод сжатия : С потерями
Размер потока : 124 Мбайт (4%)
Заголовок : Commentary with historian Bruce Eder
Язык : English
Default : Нет
Forced : Нет
Текст
Идентификатор : 6
Формат : UTF-8
Идентификатор кодека : S_TEXT/UTF8
Идентификатор кодека/Информация : UTF-8 Plain Text
Язык : English
Default : Нет
Forced : Нет
Меню
00:00:00.000 : en:1
00:01:39.000 : en:2
00:06:28.000 : en:3
00:10:26.000 : en:4
00:16:33.000 : en:5
00:20:27.000 : en:6
00:23:55.000 : en:7
00:29:42.000 : en:8
00:37:44.000 : en:9
00:47:41.000 : en:10
00:54:44.000 : en:11
01:01:57.000 : en:12
01:09:38.000 : en:13
01:18:40.000 : en:14
01:21:28.000 : en:15
01:28:03.000 : en:16

Скриншоты

Показать сообщения:    

Текущее время: 22-Сен 09:07

Часовой пояс: UTC - 1


Вы не можете начинать темы
Вы не можете отвечать на сообщения
Вы не можете редактировать свои сообщения
Вы не можете удалять свои сообщения
Вы не можете голосовать в опросах
Вы не можете прикреплять файлы к сообщениям
Вы не можете скачивать файлы

!ВНИМАНИЕ!
Сайт не предоставляет электронные версии произведений, а занимается лишь коллекционированием и каталогизацией ссылок, присылаемых и публикуемых на форуме нашими читателями. Если вы являетесь правообладателем какого-либо представленного материала и не желаете, чтобы ссылка на него находилась в нашем каталоге, свяжитесь с нами, и мы незамедлительно удалим ее. Файлы для обмена на трекере предоставлены пользователями сайта, и администрация не несет ответственности за их содержание. Просьба не заливать файлы, защищенные авторскими правами, а также файлы нелегального содержания!