Ивановский Торрент трекер
Яндекс.Погода
 

[Цитировать]
HUNTER

Верить только ветру. Чернобыль. 20 лет спустя / Верыць толькі ветру. Чарнобыль. 20 гадоў пасьля
Год выпуска: 2007
Страна: Беларусь
Жанр: документальный
Продолжительность: 00:32:32
-
Перевод: Не требуется
Русские субтитры: нет
-
Режиссер: Виктор Корзун / Віктар Корзун
-
Описание: Фильм о Чернобыле и его последствиях в Беларуси.
-
качество: DVDRip (DVD5/Sh_Holmеs)
формат: AVI
Видео: 720x528 (1.36:1), 25 fps, XviD build 73 ~1939 kbps avg, 0.20 bit/pixel
Аудио: 48 kHz, AC3 Dolby Digital, 2/0 (L,R) ch, ~192 kbps

MediaInfo

GeneralComplete name : C:\Рипы\Верить только ветру.Чернобыль.20 лет спустя.2007.RUS.DVDRip.XviD.AC3.aviFormat : AVIFormat/Info : Audio Video InterleaveFile size : 499 MiBDuration : 32mn 32sOverall bit rate : 2 142 KbpsWriting application : VirtualDubMod 1.5.10.2 (build 2540/release)Writing library : VirtualDubMod build 2540/release
VideoID : 0Format : MPEG-4 VisualFormat profile : Advanced Simple@L5Format settings, BVOP : 1Format settings, QPel : NoFormat settings, GMC : No warppointsFormat settings, Matrix : CustomCodec ID : XVIDCodec ID/Hint : XviDDuration : 32mn 32sBit rate : 1 940 KbpsWidth : 720 pixelsHeight : 528 pixelsDisplay aspect ratio : 4:3Frame rate : 25.000 fpsColor space : YUVChroma subsampling : 4:2:0Bit depth : 8 bitsScan type : ProgressiveCompression mode : LossyBits/(Pixel*Frame) : 0.204Stream size : 452 MiB (91%)Writing library : XviD 73
AudioID : 1Format : AC-3Format/Info : Audio Coding 3Mode extension : CM (complete main)Format settings, Endianness : BigCodec ID : 2000Duration : 32mn 32sBit rate mode : ConstantBit rate : 192 KbpsChannel(s) : 2 channelsChannel positions : Front: L RSampling rate : 48.0 KHzBit depth : 16 bitsCompression mode : LossyStream size : 44.7 MiB (9%)Alignment : Split accross interleavesInterleave, duration : 40 ms (1.00 video frame)Interleave, preload duration : 500 ms

Скриншоты

Показать сообщения:    

Текущее время: 19-Окт 15:30

Часовой пояс: UTC - 1


Вы не можете начинать темы
Вы не можете отвечать на сообщения
Вы не можете редактировать свои сообщения
Вы не можете удалять свои сообщения
Вы не можете голосовать в опросах
Вы не можете прикреплять файлы к сообщениям
Вы не можете скачивать файлы

!ВНИМАНИЕ!
Сайт не предоставляет электронные версии произведений, а занимается лишь коллекционированием и каталогизацией ссылок, присылаемых и публикуемых на форуме нашими читателями. Если вы являетесь правообладателем какого-либо представленного материала и не желаете, чтобы ссылка на него находилась в нашем каталоге, свяжитесь с нами, и мы незамедлительно удалим ее. Файлы для обмена на трекере предоставлены пользователями сайта, и администрация не несет ответственности за их содержание. Просьба не заливать файлы, защищенные авторскими правами, а также файлы нелегального содержания!