Ивановский Торрент трекер
Яндекс.Погода
 

[Цитировать]
HUNTER

Вера Круз / Vera Cruz
Страна: США
Жанр: приключения, вестерн
Год выпуска: 1954
Продолжительность: 01:33:35
Перевод 1: Профессиональный (многоголосый закадровый) 5 канал
Перевод 2: Профессиональный (двухголосый закадровый) SomeWax
Перевод 3: Авторский (одноголосый закадровый) Г.Либергал
Cубтитры: Russian, English
Оригинальная аудиодорожка: английский
Режиссер: Роберт Олдрич / Robert Aldrich
В ролях: Гэри Купер, Берт Ланкастер, Денис Дарсел, Сизар Ромеро, Сара Монтьель, Джордж Макреди, Эрнест Боргнайн, Моррис Анкрум, Генри Брэндон, Чарльз Бронсон
Описание: Бывший полковник южан Бенджамен Трэйн в поисках приключений отправляется в Мексику, воюющую за независимость. Ему без разницы, за кого воевать — повстанцев хуаристов или французского императора Максимилиана. В Мексике Бенджамен встречает такого же солдата удачи — Джо Эрина.
Объединившись, напарники нанимаются к французам для эскорта молодой маркизы. В пути оказывается, что настоящая цель их путешествия — доставка 3 миллионов долларов в Вера Круз. На золото претендуют многие, но достанется оно далеко не всем…
Раздача от:
Автор: Stvstas
Тип релиза: BDRip 720p
Контейнер: MKV
Видео: 1280x644 at 23.976 fps, x264, ~8310 kbps avg
Аудио 1: Russian: 48 kHz, AC3, 2/0 (L,R) ch, ~192.00 kbps avg |Многоголосый закадровый, Петербург, 5 канал|
Аудио 2: Russian: 48 kHz, AC3, 2/0 (L,R) ch, ~192.00 kbps avg |Двухголосый закадровый, SomeWax|
Аудио 3: Russian: 48 kHz, AC3, 2/0 (L,R) ch, ~192.00 kbps avg |Одноголосый закадровый, Г.Либергал|
Аудио 4: English: 48 kHz, DTS, 2/0 (L,R) ch, ~1536.00 kbps avg

Доп. информация

  • Сохранены оригинальные чаптеры как на Blu-ray.

MI

Общее
Уникальный идентификатор : 243114140423230532031487720612631399851 (0xB6E6148E2E469E49883C9F251123CDAB)
Полное имя : C:\Users\1\Desktop\Фильмы\Раздачи\Vera.Cruz.1954.720p.BDRip.3xRus.Eng.HDCLUB.mkv
Формат : Matroska
Размер файла : 6,80 Гбайт
Продолжительность : 1 ч. 33 м.
Общий поток : 10,4 Мбит/сек
Дата кодирования : UTC 2011-07-30 06:43:36
Программа кодирования : mkvmerge v3.4.0 ('Rapunzel') сборка от May 15 2010 09:38:20
Библиотека кодирования : libebml v0.8.0 + libmatroska v0.9.0
Видео
Идентификатор : 1
Формат : AVC
Формат/Информация : Advanced Video Codec
Профиль формата : High@L4.1
Параметр CABAC формата : Да
Параметр ReFrames формата : 9 кадры
Идентификатор кодека : V_MPEG4/ISO/AVC
Продолжительность : 1 ч. 33 м.
Битрейт : 8105 Кбит/сек
Ширина : 1280 пикс.
Высота : 644 пикс.
Соотношение сторон : 1,988
Частота кадров : 23,976 кадр/сек
Цветовое пространство : YUV
Подвыборка цветности : 4:2:0
Битовая глубина : 8 бит
Тип развёртки : Прогрессивная
Бит/(Пиксели*Кадры) : 0.410
Размер потока : 5,30 Гбайт (78%)
Заголовок : Vera Cruz (1954)- Release for HDCLUB
Библиотека кодирования : x264 core 116 r2037 f8ebd4a
Настройки программы : cabac=1 / ref=9 / deblock=1:-3:-3 / analyse=0x3:0x133 / me=umh / subme=10 / psy=1 / psy_rd=1.20:0.00 / mixed_ref=1 / me_range=64 / chroma_me=1 / trellis=2 / 8x8dct=1 / cqm=0 / deadzone=21,11 / fast_pskip=0 / chroma_qp_offset=-2 / threads=12 / sliced_threads=0 / nr=0 / decimate=0 / interlaced=0 / bluray_compat=0 / constrained_intra=0 / bframes=12 / b_pyramid=2 / b_adapt=2 / b_bias=0 / direct=1 / weightb=1 / open_gop=0 / weightp=2 / keyint=250 / keyint_min=23 / scenecut=40 / intra_refresh=0 / rc_lookahead=40 / rc=crf / mbtree=0 / crf=17.5 / qcomp=0.90 / qpmin=0 / qpmax=69 / qpstep=4 / vbv_maxrate=50000 / vbv_bufsize=62500 / crf_max=0.0 / nal_hrd=none / ip_ratio=1.40 / pb_ratio=1.30 / aq=1:0.60
Язык : English
Основные цвета : BT.709-5, BT.1361, IEC 61966-2-4, SMPTE RP177
Характеристики трансфера : BT.709-5, BT.1361
Коэффициенты матрицы : BT.709-5, BT.1361, IEC 61966-2-4 709, SMPTE RP177
Аудио #1
Идентификатор : 2
Формат : AC-3
Формат/Информация : Audio Coding 3
Расширение режима : CM (complete main)
Идентификатор кодека : A_AC3
Продолжительность : 1 ч. 33 м.
Вид битрейта : Постоянный
Битрейт : 192 Кбит/сек
Канал(ы) : 2 канала(ов)
Расположение каналов : Front: L R
Частота : 48,0 КГц
Битовая глубина : 16 бит
Метод сжатия : С потерями
Размер потока : 129 Мбайт (2%)
Заголовок : AC3 2.0ch 192 kbps, Многоголосый, 5 канал
Язык : Russian
Аудио #2
Идентификатор : 3
Формат : AC-3
Формат/Информация : Audio Coding 3
Расширение режима : CM (complete main)
Идентификатор кодека : A_AC3
Продолжительность : 1 ч. 33 м.
Вид битрейта : Постоянный
Битрейт : 192 Кбит/сек
Канал(ы) : 2 канала(ов)
Расположение каналов : Front: L R
Частота : 48,0 КГц
Битовая глубина : 16 бит
Метод сжатия : С потерями
Размер потока : 129 Мбайт (2%)
Заголовок : AC3 2.0ch 192 kbps, Двухголосый, SomeWax
Язык : Russian
Аудио #3
Идентификатор : 4
Формат : AC-3
Формат/Информация : Audio Coding 3
Расширение режима : CM (complete main)
Идентификатор кодека : A_AC3
Продолжительность : 1 ч. 33 м.
Вид битрейта : Постоянный
Битрейт : 192 Кбит/сек
Канал(ы) : 2 канала(ов)
Расположение каналов : Front: L R
Частота : 48,0 КГц
Битовая глубина : 16 бит
Метод сжатия : С потерями
Размер потока : 129 Мбайт (2%)
Заголовок : AC3 2.0ch 192 kbps, Одноголосый, Либергал
Язык : Russian
Аудио #4
Идентификатор : 5
Формат : DTS
Формат/Информация : Digital Theater Systems
Идентификатор кодека : A_DTS
Продолжительность : 1 ч. 33 м.
Вид битрейта : Постоянный
Битрейт : 1510 Кбит/сек
Канал(ы) : 2 канала(ов)
Расположение каналов : Front: L R
Частота : 48,0 КГц
Битовая глубина : 24 бит
Метод сжатия : С потерями
Размер потока : 1011 Мбайт (15%)
Заголовок : DTS 2.0ch 1510 kbps
Язык : English
Текст #1
Идентификатор : 6
Формат : UTF-8
Идентификатор кодека : S_TEXT/UTF8
Идентификатор кодека/Информация : UTF-8 Plain Text
Заголовок : Russian
Язык : Russian
Текст #2
Идентификатор : 7
Формат : UTF-8
Идентификатор кодека : S_TEXT/UTF8
Идентификатор кодека/Информация : UTF-8 Plain Text
Заголовок : English
Язык : English
Меню
00:00:00.000 : en:00:00:00.000
00:03:49.396 : en:00:03:49.396
00:09:57.138 : en:00:09:57.138
00:13:54.375 : en:00:13:54.375
00:22:41.443 : en:00:22:41.443
00:37:10.770 : en:00:37:10.770
00:39:43.756 : en:00:39:43.756
00:43:51.087 : en:00:43:51.087
00:48:52.972 : en:00:48:52.972
00:53:30.332 : en:00:53:30.332
00:57:27.527 : en:00:57:27.527
00:59:55.050 : en:00:59:55.050
01:07:25.333 : en:01:07:25.333
01:12:33.474 : en:01:12:33.474
01:16:04.351 : en:01:16:04.351
01:24:49.501 : en:01:24:49.501

Скриншоты

Показать сообщения:    

Текущее время: 17-Окт 03:12

Часовой пояс: UTC - 1


Вы не можете начинать темы
Вы не можете отвечать на сообщения
Вы не можете редактировать свои сообщения
Вы не можете удалять свои сообщения
Вы не можете голосовать в опросах
Вы не можете прикреплять файлы к сообщениям
Вы не можете скачивать файлы

!ВНИМАНИЕ!
Сайт не предоставляет электронные версии произведений, а занимается лишь коллекционированием и каталогизацией ссылок, присылаемых и публикуемых на форуме нашими читателями. Если вы являетесь правообладателем какого-либо представленного материала и не желаете, чтобы ссылка на него находилась в нашем каталоге, свяжитесь с нами, и мы незамедлительно удалим ее. Файлы для обмена на трекере предоставлены пользователями сайта, и администрация не несет ответственности за их содержание. Просьба не заливать файлы, защищенные авторскими правами, а также файлы нелегального содержания!