Важное объявление!
У Нас Все раздачи мультитрекерные, при нуле пиров в релизах, можете смело вставать на закачку!
 
Автор Сообщение

HUNTER

Стаж:
4 года 8 месяцев
Сообщений:
62034

Репутация: 101

[+] [-]
Вне форума [Профиль] [ЛС]

Венский вальс-Год выпуска: 2005
Страна: Россия
Сайт производителя: отсутствует
Тематика: танцы
Тип материала: обучающее видео-Продолжительность: 00:55:19
Автор: не известен-Язык: русский
Субтитры: отсутствуют-Описание: Вальс всегда был символом романтизма. «Танец порхающих бабочек». Волшебное кружение пары придает ей удивительное изящество, а тесные объятия партнеров дарят ощущение идеального согласия и воплощают в себе образ...-Качество: DVDRip
Формат: AVI
Видео кодек: XviD
Аудио кодек: MP3
Видео: 720 x 400 (1.800), 25 fps, XviD MPEG-4 Visual ~1477 kbps avg, 0.20 bit/pixel
Аудио: 48 kHz, MPEG Audio, 2 ch, ~112.00 kbps avg-

Доп. информация

Первый Венский Вальс датирован 12-13 столетием и применен в танце под названием "Nachtanz". Венский Вальс пришел к нам из Баварии и назывался тогда как "German". Приблизительно в начале 1830 года, композиторы Франц Ланнер (Franz Lanner) и Иоган Штраус (Johann Strauss) написали несколько очень известных сейчас вальсов нашей эры, способствуя тем самым развитию и популярности этого танца. Эти вальсы были весьма быстры, но, сделав ритм танца более удобным, мы теперь называем их Венскими Вальсами (Viennese Waltz) и всегда с радостью танцуем.
Все танцы из современной европейской программы были более-менее подробно описаны, за исключением Венского вальса, который был не очень популярен в Англии. Единственным настоящим вальсом тогда считался "английский вальс" (сейчас - медленный). Венский вальс позднее был добавлен к списку ballroom, или европейских танцев, но так и не был включен в конкурсную программу Блэкпульского фестиваля…
Первое упоминание о танцах, подобных вальсу, относится к 12, 13 столетию, когда в Баварии танцевали "Nachtanz". Основные споры вызывают две версии происхождения танца - германская, в Англии долго называли его "немецкий" вальс, и французская, точнее, французско-итальянская. Очевидно только одно - венский вальс точно не из Австрии, а называют его так, поскольку пик популярности он пережил в начале 19 века в Вене под музыку Штрауса.

MediaInfo

Код: copyText_writeLink('this.parentNode.parentNode.nextSibling.nextSibling'); General
Complete name : E:\Обучение\Venskiy_vals.avi
Format : AVI
Format/Info : Audio Video Interleave
File size : 634 MiB
Duration : 55mn 19s
Overall bit rate mode : Variable
Overall bit rate : 1 602 Kbps
Writing application : MEncoder 1.0rc2-4.2.4
Writing library : MPlayer
Video
ID : 0
Format : MPEG-4 Visual
Format profile : Simple@L1
Format settings, BVOP : No
Format settings, QPel : No
Format settings, GMC : No warppoints
Format settings, Matrix : Default (H.263)
Codec ID : XVID
Codec ID/Hint : XviD
Duration : 55mn 19s
Bit rate : 1 477 Kbps
Width : 720 pixels
Height : 400 pixels
Display aspect ratio : 16:9
Frame rate : 25.000 fps
Color space : YUV
Chroma subsampling : 4:2:0
Bit depth : 8 bits
Scan type : Progressive
Compression mode : Lossy
Bits/(Pixel*Frame) : 0.205
Stream size : 585 MiB (92%)
Writing library : Lavc51.44.0
Audio
ID : 1
Format : MPEG Audio
Format version : Version 1
Format profile : Layer 3
Mode : Joint stereo
Mode extension : MS Stereo
Codec ID : 55
Codec ID/Hint : MP3
Duration : 55mn 19s
Bit rate mode : Variable
Bit rate : 112 Kbps
Nominal bit rate : 128 Kbps
Channel(s) : 2 channels
Sampling rate : 48.0 KHz
Compression mode : Lossy
Stream size : 44.4 MiB (7%)
Alignment : Aligned on interleaves
Interleave, duration : 24 ms (0.60 video frame)
Interleave, preload duration : 1108 ms
Writing library : LAME3.97b
Encoding settings : -m j -V 4 -q 2 -lowpass 17 --abr 128
- -

_________________
Показать сообщения:    

Текущее время: Сегодня 21:37

Часовой пояс: GMT



Вы не можете начинать темы
Вы не можете отвечать на сообщения
Вы не можете редактировать свои сообщения
Вы не можете удалять свои сообщения
Вы не можете голосовать в опросах
Вы не можете прикреплять файлы к сообщениям
Вы не можете скачивать файлы
Наши партнеры: интернет магазин Ивановского трикотажа textilla.ru