Ивановский Торрент трекер
Яндекс.Погода
 

[Цитировать]
HUNTER

Великолепный / Le Magnifique
Страна: Франция, Италия
Студия: Les Films Ariane
Жанр: Комедия, мелодрама, боевик
Год выпуска: 1973
Продолжительность: 01:33:57
Перевод: Профессиональный (дублированный) СССР "Ленфильм" со вставками из DVO
Перевод 2: Профессиональный (многоголосый закадровый)
Перевод 3: Профессиональный (многоголосый закадровый)
Перевод 4: Профессиональный (двухголосый закадровый)
Cубтитры: русские, английские, чешские, французские
Оригинальная аудиодорожка: французский
Режиссер: Филипп де Брока / Philippe de Broca
В ролях: Жан-Поль Бельмондо, Жаклин Биссет, Витторио Каприоли, Ганс Мейер, Моник Тарбес, Марио Давид, Бруно Гарсен, Раймон Жером, Жан Лефевр, Фабрицио Мореско
Описание: Автор шпионских романов Франсуа Мерлен дни напролёт просиживает за печатной машинкой, создавая новый роман для своего редактора Шаррона. Он написал уже 42 романа о суперагенте Бобе Сен-Клере. Несмотря на то что его романы пользуются бешеной популярностью у читателей, Мерлен так и не разбогател. Он живёт в убогой квартире и его кошелёк вечно пуст. Его личная жизнь тоже не ладится: с женой он в разводе, а с симпатичной соседкой Кристин он боится даже заговорить. Зато на бумаге он может дать волю своей фантазии: Кристин перевоплощается в суперагента Татьяну, а Шаррон в гнусного начальника секретной службы Республики Албания полковника Карпофа. Боб Сен-Клер находит выход из любой ситуации. Он с лёгкостью расправляется с лучшими агентами разведки Албании и может очаровать любую женщину. Именно поэтому ему поручают самые рискованные задания во всех уголках мира. Кристин работает социологом в международном социологическом центре и она видит в романах Мерлена интересную тему для своей диссертации — феномен Боба Сен-Клера. Общаясь с писателем, она не воспринимает всерьёз его ухаживания, Боб Сен-Клер — вот настоящий мужчина, мечта миллионов женщин. Мерлен проигрывает в борьбе за любимую женщину плоду своего собственного воображения. Франсуа Мерлен решает уничтожить своего героя. Теперь он свободен и может наслаждаться жизнью. Кристин находит его в парке за игрой и признаётся ему, что на самом деле ей нравятся именно такие мужчины, как Франсуа Мерлен.
Сэмпл: http://yadi.sk/d/bDFLPL8RLQcSr
Тип релиза: BDRip 720p
Контейнер: MKV
Видео: H264 (AVC) 1196x720 (1.661); 6500 Kbps; 24.000 fps
Аудио: Russian; AC3; 48.0 KHz; 2ch; 192 Kbps Dub
Аудио 2: Russian; AC3; 48.0 KHz; 2ch; 192 Kbps MVO
Аудио 3: Russian; AC3; 48.0 KHz; 2ch; 192 Kbps MVO
Аудио 4: Russian; AC3; 48.0 KHz; 2ch; 192 Kbps DVO
Аудио 5: French; FLAC; 48.0 KHz; 2ch; 451 Kbps
Аудио 6: French; AAC; 48.0 KHz; 2ch; 160 Kbps Commentary by Director Philippe de Broca
Формат субтитров: softsub (SRT)

MediaInfo

Полное имя : Великолепный 1973 720p.mkv
Формат : Matroska
Версия формата : Version 2
Размер файла : 5,11 Гбайт
Продолжительность : 1 ч. 33 м.
Режим общего битрейта : Переменный
Общий поток : 7788 Кбит/сек
Название фильма : Le Magnifique (1973)
Дата кодирования : UTC 2014-03-25 13:17:26
Программа кодирования : mkvmerge v3.3.0 ('Language') built on Mar 24 2010
Библиотека кодирования : libebml v0.8.0 + libmatroska v0.9.0
Видео
Идентификатор : 1
Формат : AVC
Формат/Информация : Advanced Video Codec
Профиль формата : High@L4.1
Параметр CABAC формата : Да
Параметр ReFrames формата : 8 кадров
Идентификатор кодека : V_MPEG4/ISO/AVC
Продолжительность : 1 ч. 33 м.
Номинальный битрейт : 6500 Кбит/сек
Ширина : 1196 пикселей
Высота : 720 пикселей
Соотношение сторон : 1,661
Режим частоты кадров : Постоянный
Частота кадров : 24,000 кадра/сек
Цветовое пространство : YUV
Субдискретизация насыщенности : 4:2:0
Битовая глубина : 8 бит
Тип развёртки : Прогрессивная
Бит/(Пиксели*Кадры) : 0.315
Библиотека кодирования : x264 core 125 r2208 d9d2288
Настройки программы : cabac=1 / ref=8 / deblock=1:-1:-1 / analyse=0x3:0x133 / me=umh / subme=7 / psy=1 / psy_rd=1.00:0.10 / mixed_ref=1 / me_range=16 / chroma_me=1 / trellis=2 / 8x8dct=1 / cqm=0 / deadzone=21,11 / fast_pskip=0 / chroma_qp_offset=-3 / threads=12 / lookahead_threads=2 / sliced_threads=0 / nr=0 / decimate=1 / interlaced=0 / bluray_compat=0 / constrained_intra=0 / bframes=3 / b_pyramid=2 / b_adapt=2 / b_bias=0 / direct=3 / weightb=1 / open_gop=0 / weightp=2 / keyint=250 / keyint_min=24 / scenecut=40 / intra_refresh=0 / rc_lookahead=50 / rc=2pass / mbtree=1 / bitrate=6500 / ratetol=1.0 / qcomp=0.60 / qpmin=0 / qpmax=69 / qpstep=4 / cplxblur=20.0 / qblur=0.5 / ip_ratio=1.40 / aq=1:1.00
Default : Нет
Forced : Нет
Аудио #1
Идентификатор : 2
Формат : AC-3
Формат/Информация : Audio Coding 3
Расширение режима : CM (complete main)
Параметр Endianness формата : Big
Идентификатор кодека : A_AC3
Продолжительность : 1 ч. 33 м.
Вид битрейта : Постоянный
Битрейт : 192 Кбит/сек
Каналы : 2 канала
Расположение каналов : Front: L R
Частота : 48,0 КГц
Битовая глубина : 16 бит
Метод сжатия : С потерями
Размер потока : 129 Мбайт (2%)
Заголовок : Dub СССР Ленфильм
Язык : Russian
Default : Нет
Forced : Нет
Аудио #2
Идентификатор : 3
Формат : AC-3
Формат/Информация : Audio Coding 3
Расширение режима : CM (complete main)
Параметр Endianness формата : Big
Идентификатор кодека : A_AC3
Продолжительность : 1 ч. 33 м.
Вид битрейта : Постоянный
Битрейт : 192 Кбит/сек
Каналы : 2 канала
Расположение каналов : Front: L R
Частота : 48,0 КГц
Битовая глубина : 16 бит
Метод сжатия : С потерями
Размер потока : 129 Мбайт (2%)
Заголовок : MVO 1
Язык : Russian
Default : Нет
Forced : Нет
Аудио #3
Идентификатор : 4
Формат : AC-3
Формат/Информация : Audio Coding 3
Расширение режима : CM (complete main)
Параметр Endianness формата : Big
Идентификатор кодека : A_AC3
Продолжительность : 1 ч. 33 м.
Вид битрейта : Постоянный
Битрейт : 192 Кбит/сек
Каналы : 2 канала
Расположение каналов : Front: L R
Частота : 48,0 КГц
Битовая глубина : 16 бит
Метод сжатия : С потерями
Размер потока : 129 Мбайт (2%)
Заголовок : MVO 2
Язык : Russian
Default : Нет
Forced : Нет
Аудио #4
Идентификатор : 5
Формат : AC-3
Формат/Информация : Audio Coding 3
Расширение режима : CM (complete main)
Параметр Endianness формата : Big
Идентификатор кодека : A_AC3
Продолжительность : 1 ч. 33 м.
Вид битрейта : Постоянный
Битрейт : 192 Кбит/сек
Каналы : 2 канала
Расположение каналов : Front: L R
Частота : 48,0 КГц
Битовая глубина : 16 бит
Метод сжатия : С потерями
Размер потока : 129 Мбайт (2%)
Заголовок : DVO
Язык : Russian
Default : Нет
Forced : Нет
Аудио #5
Идентификатор : 6
Формат : FLAC
Формат/Информация : Free Lossless Audio Codec
Идентификатор кодека : A_FLAC
Продолжительность : 1 ч. 33 м.
Вид битрейта : Переменный
Каналы : 2 канала
Частота : 48,0 КГц
Битовая глубина : 16 бит
Заголовок : FLAC 2.0 - original
Библиотека кодирования : libFLAC 1.2.1 (UTC 2007-09-17)
Язык : French
Default : Нет
Forced : Нет
Аудио #6
Идентификатор : 7
Формат : AAC
Формат/Информация : Advanced Audio Codec
Профиль формата : HE-AAC / LC
Идентификатор кодека : A_AAC
Продолжительность : 1 ч. 33 м.
Каналы : 2 канала
Расположение каналов : Front: L R
Частота : 48,0 КГц / 24,0 КГц
Метод сжатия : С потерями
Задержка видео : 31 мс.
Заголовок : Commentary by Director Philippe de Broca
Язык : French
Default : Нет
Forced : Нет
Текст #1
Идентификатор : 8
Формат : UTF-8
Идентификатор кодека : S_TEXT/UTF8
Идентификатор кодека/Информация : UTF-8 Plain Text
Язык : Czech
Default : Нет
Forced : Нет
Текст #2
Идентификатор : 9
Формат : UTF-8
Идентификатор кодека : S_TEXT/UTF8
Идентификатор кодека/Информация : UTF-8 Plain Text
Язык : English
Default : Нет
Forced : Нет
Текст #3
Идентификатор : 10
Формат : UTF-8
Идентификатор кодека : S_TEXT/UTF8
Идентификатор кодека/Информация : UTF-8 Plain Text
Язык : French
Default : Нет
Forced : Нет
Текст #4
Идентификатор : 11
Формат : UTF-8
Идентификатор кодека : S_TEXT/UTF8
Идентификатор кодека/Информация : UTF-8 Plain Text
Язык : Russian
Default : Нет
Forced : Нет

Скриншоты




Показать сообщения:    

Текущее время: 11-Дек 11:37

Часовой пояс: UTC ± 0


Вы не можете начинать темы
Вы не можете отвечать на сообщения
Вы не можете редактировать свои сообщения
Вы не можете удалять свои сообщения
Вы не можете голосовать в опросах
Вы не можете прикреплять файлы к сообщениям
Вы не можете скачивать файлы

!ВНИМАНИЕ!
Сайт не предоставляет электронные версии произведений, а занимается лишь коллекционированием и каталогизацией ссылок, присылаемых и публикуемых на форуме нашими читателями. Если вы являетесь правообладателем какого-либо представленного материала и не желаете, чтобы ссылка на него находилась в нашем каталоге, свяжитесь с нами, и мы незамедлительно удалим ее. Файлы для обмена на трекере предоставлены пользователями сайта, и администрация не несет ответственности за их содержание. Просьба не заливать файлы, защищенные авторскими правами, а также файлы нелегального содержания!