Важное объявление!
У Нас Все раздачи мультитрекерные, при нуле пиров в релизах, можете смело вставать на закачку!
 
Автор Сообщение

HUNTER

Стаж:
4 года 10 месяцев
Сообщений:
65548

Репутация: 101

[+] [-]
Вне форума [Профиль] [ЛС]

Великие тайны космоса
Страна: Россия, Телекомпания РЕН
Жанр: документальный
Дата выпуска: 2014.01.30
Продолжительность: 02:24:00
Перевод: Не требуется
Русские субтитры: нет
Описание: Что такое НЛО - пилотируемые аппараты или природные явления? Почему их часто наблюдают в местах военных действий и рядом с полигонами, где испытывают оружие? Рассекреченные архивные материалы содержат информацию о десятках спецопераций по поиску НЛО, рискованных погонях за летающими тарелками, героических попытках войти в контакт с иными цивилизациями…
Качество: DVBRip
Формат: MPEG
Видео кодек: MPEG-2
Аудио кодек: MPEG-1 Layer 2
Видео: 720x576 (4:3), 25.000 fps, ~1500 Kbps (0.152 bit/pixel)
Аудио: 48.0 KHz, 1 ch, 192 Kbps, CBR

MediaInfo

GeneralComplete name : D:\torrent\Files\Великие.Тайны.Космоса.2014.DVBRip.aleksd72.mpgFormat : MPEG-PSFile size : 1.82 GiBDuration : 2h 24mnOverall bit rate mode : VariableOverall bit rate : 1 803 Kbps
VideoID : 224 (0xE0)Format : MPEG VideoFormat version : Version 2Format profile : Main@MainFormat settings, BVOP : YesFormat settings, Matrix : CustomFormat settings, GOP : VariableDuration : 2h 24mnBit rate mode : VariableBit rate : 1 575 KbpsMaximum bit rate : 15.0 MbpsWidth : 720 pixelsHeight : 576 pixelsDisplay aspect ratio : 4:3Frame rate : 25.000 fpsStandard : PALColor space : YUVChroma subsampling : 4:2:0Bit depth : 8 bitsScan type : InterlacedScan order : Top Field FirstCompression mode : LossyBits/(Pixel*Frame) : 0.152Time code of first frame : 00:00:00:00Time code source : Group of pictures headerStream size : 1.59 GiB (87%)
AudioID : 192 (0xC0)Format : MPEG AudioFormat version : Version 1Format profile : Layer 2Duration : 2h 24mnBit rate mode : ConstantBit rate : 192 KbpsChannel count : 1 channelSampling rate : 48.0 KHzCompression mode : LossyStream size : 198 MiB (11%)

Скриншоты


_________________
Показать сообщения:    

Текущее время: Сегодня 09:37

Часовой пояс: GMT



Вы не можете начинать темы
Вы не можете отвечать на сообщения
Вы не можете редактировать свои сообщения
Вы не можете удалять свои сообщения
Вы не можете голосовать в опросах
Вы не можете прикреплять файлы к сообщениям
Вы не можете скачивать файлы