Важное объявление!
У Нас Все раздачи мультитрекерные, при нуле пиров в релизах, можете смело вставать на закачку!
Статистика раздачи
Размер:     |    Зарегистрирован:     |    Скачан:     |   
Нет
 
     
 
 
Автор Сообщение

HUNTER

Стаж:
5 лет
Сообщений:
68004

Репутация: 101

[+] [-]
Вне форума [Профиль] [ЛС]

Великие тайны Вселенной
Страна: Россия, Телекомпания РЕН
Жанр: документальный
Дата выпуска: 2014.03.13
Продолжительность: 01:35:00
Перевод: Не требуется
Русские субтитры: нет
Описание: Когда человечество начнет осваивать другие планеты? И что нас там ждет: новые возможности или новые угрозы? Как устроена жизнь за пределами нашей звездной системы? Посещали ли Землю братья по разуму из других галактик?
Качество: DVBRip
Формат: MPEG
Видео кодек: MPEG-2
Аудио кодек: MPEG-1 Layer 2
Видео: 720x576 (4:3), 25.000 fps, ~1700 Kbps (0.166 bit/pixel)
Аудио: 48.0 KHz, 1 ch, 192 Kbps, CBR

MediaInfo

GeneralComplete name : D:\torrent\Files\Великие.Тайны.Вселенной.2014.DVBRip.aleksd72.mpgFormat : MPEG-PSFile size : 1.30 GiBDuration : 1h 35mnOverall bit rate mode : VariableOverall bit rate : 1 949 Kbps
VideoID : 224 (0xE0)Format : MPEG VideoFormat version : Version 2Format profile : Main@MainFormat settings, BVOP : YesFormat settings, Matrix : CustomFormat settings, GOP : VariableDuration : 1h 35mnBit rate mode : VariableBit rate : 1 719 KbpsMaximum bit rate : 15.0 MbpsWidth : 720 pixelsHeight : 576 pixelsDisplay aspect ratio : 4:3Frame rate : 25.000 fpsStandard : PALColor space : YUVChroma subsampling : 4:2:0Bit depth : 8 bitsScan type : InterlacedScan order : Top Field FirstCompression mode : LossyBits/(Pixel*Frame) : 0.166Time code of first frame : 00:00:00:00Time code source : Group of pictures headerStream size : 1.15 GiB (88%)
AudioID : 192 (0xC0)Format : MPEG AudioFormat version : Version 1Format profile : Layer 2Duration : 1h 35mnBit rate mode : ConstantBit rate : 192 KbpsChannel count : 1 channelSampling rate : 48.0 KHzCompression mode : LossyStream size : 131 MiB (10%)

Скриншоты


_________________
Показать сообщения:    

Текущее время: Сегодня 00:48

Часовой пояс: GMT



Вы не можете начинать темы
Вы не можете отвечать на сообщения
Вы не можете редактировать свои сообщения
Вы не можете удалять свои сообщения
Вы не можете голосовать в опросах
Вы не можете прикреплять файлы к сообщениям
Вы не можете скачивать файлы