Важное объявление!
У Нас Все раздачи мультитрекерные, при нуле пиров в релизах, можете смело вставать на закачку!
Статистика раздачи
Размер:     |    Зарегистрирован:     |    Скачан:     |   
Нет
 
     
 
 
Автор Сообщение

HUNTER

Стаж:
5 лет
Сообщений:
68042

Репутация: 101

[+] [-]
Вне форума [Профиль] [ЛС]

Великие преступления и процессы 20-века. Счастливчик Лучиано и мафия / Great crimes and trials of the twentieth century. Lucky Luciano and the Mob
Дата/Год выпуска: 1995
Страна: Великобритания
Жанр: Документальный
Продолжительность: 00:26:37
Перевод: Авторский (одноголосый закадровый)
Доп. инфо о переводе: П.Карцев
Русские субтитры: нет
Оригинальная аудиодорожка: нет
Описание: Окружной прокурор штата Нью-Йорк Томас Дьюи использовал все доступные ему средства в войне с мафией. И в мае 1936 года самый влиятельный мафиози Чарли Лучано угодил за решетку на 30 лет.
Доп. информация: Оцифровка VHS (личный архив) и получение VHSRip alenavova
Эксклюзив для rutracker.org. При размещении данного релиза на других сайтах ссылка на автора alenavova обязательна.

Релиз
Сэмпл: https://yadi.sk/i/_0jQs8pFeQXXB
качество: VHSRip
формат: MPG
Видео: MPEG2 Video 720x576 (4:3) 25fps
Аудио: MPEG Audio 48000Hz stereo 192kbps

MediaInfo

Великие преступления и процессы 20-века. Счастливчик Лучиано и мафия [by alenavova].mpgFormat : MPEG-PSFile size : 1.16 GiBDuration : 26mn 20sOverall bit rate mode : VariableOverall bit rate : 6 311 KbpsWriting library : (c) 1998-2009 Womble Multimedia, Inc. / MPEG Video Wizard (03/2009) / Dec 9 2009
VideoID : 224 (0xE0)Format : MPEG VideoFormat version : Version 2Format profile : Main@MainFormat settings, BVOP : YesFormat settings, Matrix : DefaultFormat settings, GOP : VariableDuration : 26mn 20sBit rate mode : VariableBit rate : 6 000 KbpsWidth : 720 pixelsHeight : 576 pixelsDisplay aspect ratio : 4:3Frame rate : 25.000 fpsStandard : PALColor space : YUVChroma subsampling : 4:2:0Bit depth : 8 bitsScan type : ProgressiveCompression mode : LossyBits/(Pixel*Frame) : 0.579Time code of first frame : 00:00:00:00Time code source : Group of pictures headerStream size : 1.10 GiB (95%)Writing library : (c) 1998-2009 Womble Multimedia, Inc. / MPEG Video Wizard (03/2009) / Dec 9 2009Color primaries : BT.601 PALTransfer characteristics : BT.470 System B, BT.470 System GMatrix coefficients : BT.601
AudioID : 192 (0xC0)Format : MPEG AudioFormat version : Version 1Format profile : Layer 2Duration : 26mn 20sBit rate mode : ConstantBit rate : 192 KbpsChannel(s) : 2 channelsSampling rate : 48.0 KHzCompression mode : LossyStream size : 36.2 MiB (3%)
Menu

Скриншоты



_________________
Показать сообщения:    

Текущее время: Сегодня 16:50

Часовой пояс: GMT



Вы не можете начинать темы
Вы не можете отвечать на сообщения
Вы не можете редактировать свои сообщения
Вы не можете удалять свои сообщения
Вы не можете голосовать в опросах
Вы не можете прикреплять файлы к сообщениям
Вы не можете скачивать файлы