Важное объявление!
У Нас Все раздачи мультитрекерные, при нуле пиров в релизах, можете смело вставать на закачку!
 
Автор Сообщение

HUNTER

Стаж:
4 года 7 месяцев
Сообщений:
61564

Репутация: 101

[+] [-]
Вне форума [Профиль] [ЛС]

Великие Войны №7 / 1939-1945 Вторая Мировая Война - Курская Битва / Hell's Battlefield: Kursk
Год выпуска: 2000
Страна: США, History Channel
Жанр: Документальный, война, история, кинохроника
Продолжительность: 00:44:01
Перевод: Одноголосый закадровый
Описание: Начало операции «Барбаросса» было сокрушительным. В первые месяцы казалось, что русские войска не смогут противостоять немцам. Но когда вражеские войска приблизились к Москве, Сталину удалось поднять народ и переломить ход событий. После того, как немцев отбросили от Сталинграда, последовал смертельный удар под Курском. Гитлер перегруппировал свои войска и вновь считал себя непобедимым, поскольку никогда и никто еще не имел столько вооруженных сил. Русские подготовились и готовы были мужественно оборонятся. Более двух миллионов солдат стояли друг против друга.
Доп. информация: Авторство релиза - alf62
Спасибо BART0S за предоставленный ДВД диск: http://rutracker.org/forum/viewtopic.php?t=4206914

качество: DVDRip
формат: AVI
Видео: 688x512 (1.34:1), 25 fps, DivX, 1703 kbps avg, 0.19 bit/pixel
Аудио: 48 kHz, AC3 Dolby Digital, 2/0 (L,R) ch, ~192.00 kbps avg

MediaInfo

General
Complete name : E:\Торенты\Rutracker.org\Великие Войны\Velikie.Vojny.Kurskaja.Bitva.2000.DVDRip.alf62.avi
Format : AVI
Format/Info : Audio Video Interleave
File size : 599 MiB
Duration : 44mn 1s
Overall bit rate : 1 901 Kbps
Writing application : VirtualDubMod 1.5.10.3 | www.virtualdub-fr.org || (build 2550/release)
Writing library : VirtualDubMod build 2550/release
Video
ID : 0
Format : MPEG-4 Visual
Format profile : Advanced Simple@L5
Format settings, BVOP : 2
Format settings, QPel : No
Format settings, GMC : No warppoints
Format settings, Matrix : Default (MPEG)
Codec ID : DX50
Codec ID/Hint : DivX 5
Duration : 44mn 1s
Bit rate : 1 700 Kbps
Width : 688 pixels
Height : 512 pixels
Display aspect ratio : 4:3
Frame rate : 25.000 fps
Color space : YUV
Chroma subsampling : 4:2:0
Bit depth : 8 bits
Scan type : Progressive
Compression mode : Lossy
Bits/(Pixel*Frame) : 0.193
Stream size : 535 MiB (89%)
Writing library : XviD 73
Audio
ID : 1
Format : AC-3
Format/Info : Audio Coding 3
Mode extension : CM (complete main)
Format settings, Endianness : Big
Codec ID : 2000
Duration : 43mn 54s
Bit rate mode : Constant
Bit rate : 192 Kbps
Channel(s) : 2 channels
Channel positions : Front: L R
Sampling rate : 48.0 KHz
Bit depth : 16 bits
Compression mode : Lossy
Stream size : 60.3 MiB (10%)
Alignment : Split accross interleaves
Interleave, duration : 40 ms (1.00 video frame)
Interleave, preload duration : 500 ms

_________________
Показать сообщения:    

Текущее время: Сегодня 01:15

Часовой пояс: GMT



Вы не можете начинать темы
Вы не можете отвечать на сообщения
Вы не можете редактировать свои сообщения
Вы не можете удалять свои сообщения
Вы не можете голосовать в опросах
Вы не можете прикреплять файлы к сообщениям
Вы не можете скачивать файлы
Наши партнеры: интернет магазин Ивановского трикотажа textilla.ru