Важное объявление!
У Нас Все раздачи мультитрекерные, при нуле пиров в релизах, можете смело вставать на закачку!
 
Автор Сообщение

HUNTER

Стаж:
4 года 6 месяцев
Сообщений:
60937

Репутация: 101

[+] [-]
Вне форума [Профиль] [ЛС]

Великая война (2011) DVDRip
Год выпуска: 2011
Страна: Россия / Первый канал, Star Media, Babich-design
Жанр: Документальный
Продолжительность: 18 x ~ 00:50:54
Перевод: Не требуется
Русские субтитры: нет
Режиссер: Анна Граждан
Описание: Годы, отделяющие нас от событий Второй мировой войны и 5 лет Великой Отечественной войны, дают возможность исследователям открыть новые страницы того героического и трагического времени. Современная 3D анимация и достоверная реконструкция событий дают нам возможность представить себя в гуще воздушных боев неба Москвы, Кавказа и Берлина, танковых атак на Курской дуге и рукопашных схваток под Ржевом и Севастополем. Сталинградская битва, Ленинградская Дорога жизни, Гитлеровские планы захвата кавказской нефти, работа агентурной разведки, самый массовый истребитель, действия подводников северного флота, открытие Второго фронта, действия партизан и многое, многое другое. Но главные герои эпохального проекта - люди: солдаты и матросы, офицеры и старшины, маршалы и генералы - герои самой кровопролитной войны XX века.
Список фильмов:
Фильм 01-й. "Барбаросса"
Фильм 02-й. "Киев 1941"
Фильм 03-й. "Оборона Севастополя"
Фильм 04-й. "Битва за Москву"
Фильм 05-й. "Блокада Ленинграда"
Фильм 06-й. "Ржев"
Фильм 07-й. "Сталинград"
Фильм 08-й. "Битва за Кавказ"
Фильм 09-й. "Курская дуга"
Фильм 10-й. "От Днепра до Одера"
Фильм 11-й. "Операции "Багратион""
Фильм 12-й. "Битва за воздух"
Фильм 13-й. "Война на море"
Фильм 14-й. "Партизаны"
Фильм 15-й. "Агентурная разведка"
Фильм 16-й. "Битва за Германию"
Фильм 17-й. "Битва за Берлин"
Фильм 18-й. "Война с Японией"
Доп. информация: Релиз группы
Качество: DVDRip
Формат: AVI
Видео кодек: XviD
Аудио кодек: AC3
Видео: XviD, 1720 Кбит/с, 720x384 / 720x408, 25.000 fps
Аудио: AC3, 2 ch, 192 Кбит/с, 48 kHz

Скриншоты

MediaInfo для 720х384

General
Complete name : Velikaja.vojna.(Film.01.iz.18).Barbarossa.2011.XviD.DVDRip.avi
Format : AVI
Format/Info : Audio Video Interleave
File size : 700 MiB
Duration : 50mn 54s
Overall bit rate : 1 921 Kbps
Writing application : VirtualDubMod 1.5.10.2 (build 2540/release)
Writing library : VirtualDubMod build 2540/release
Video
ID : 0
Format : MPEG-4 Visual
Format profile : Advanced Simple@L5
Format settings, BVOP : 4
Format settings, QPel : No
Format settings, GMC : No warppoints
Format settings, Matrix : Custom
Codec ID : XVID
Codec ID/Hint : XviD
Duration : 50mn 54s
Bit rate : 1 720 Kbps
Width : 720 pixels
Height : 384 pixels
Display aspect ratio : 1.875
Frame rate : 25.000 fps
Color space : YUV
Chroma subsampling : 4:2:0
Bit depth : 8 bits
Scan type : Progressive
Compression mode : Lossy
Bits/(Pixel*Frame) : 0.249
Stream size : 626 MiB (90%)
Writing library : XviD 1.2.1 (UTC 2008-12-04)
Audio
ID : 1
Format : AC-3
Format/Info : Audio Coding 3
Mode extension : CM (complete main)
Codec ID : 2000
Duration : 50mn 54s
Bit rate mode : Constant
Bit rate : 192 Kbps
Channel(s) : 2 channels
Channel positions : Front: L R
Sampling rate : 48.0 KHz
Bit depth : 16 bits
Compression mode : Lossy
Stream size : 69.9 MiB (10%)
Alignment : Split accross interleaves
Interleave, duration : 40 ms (1.00 video frame)
Interleave, preload duration : 500 ms

MediaInfo для 720x408

General
Complete name : Velikaja.vojna.(Film.03.iz.18).Oborona.Sevastopolja.2011.XviD.DVDRip.avi
Format : AVI
Format/Info : Audio Video Interleave
File size : 700 MiB
Duration : 50mn 27s
Overall bit rate : 1 940 Kbps
Writing application : VirtualDubMod 1.5.10.2 (build 2540/release)
Writing library : VirtualDubMod build 2540/release
Video
ID : 0
Format : MPEG-4 Visual
Format profile : Advanced Simple@L5
Format settings, BVOP : 4
Format settings, QPel : No
Format settings, GMC : No warppoints
Format settings, Matrix : Custom
Codec ID : XVID
Codec ID/Hint : XviD
Duration : 50mn 27s
Bit rate : 1 739 Kbps
Width : 720 pixels
Height : 408 pixels
Display aspect ratio : 16:9
Frame rate : 25.000 fps
Color space : YUV
Chroma subsampling : 4:2:0
Bit depth : 8 bits
Scan type : Progressive
Compression mode : Lossy
Bits/(Pixel*Frame) : 0.237
Stream size : 627 MiB (90%)
Writing library : XviD 1.2.1 (UTC 2008-12-04)
Audio
ID : 1
Format : AC-3
Format/Info : Audio Coding 3
Mode extension : CM (complete main)
Codec ID : 2000
Duration : 50mn 27s
Bit rate mode : Constant
Bit rate : 192 Kbps
Channel(s) : 2 channels
Channel positions : Front: L R
Sampling rate : 48.0 KHz
Bit depth : 16 bits
Compression mode : Lossy
Stream size : 69.3 MiB (10%)
Alignment : Split accross interleaves
Interleave, duration : 40 ms (1.00 video frame)
Interleave, preload duration : 500 ms

_________________
Показать сообщения:    

Текущее время: Сегодня 22:46

Часовой пояс: GMT



Вы не можете начинать темы
Вы не можете отвечать на сообщения
Вы не можете редактировать свои сообщения
Вы не можете удалять свои сообщения
Вы не можете голосовать в опросах
Вы не можете прикреплять файлы к сообщениям
Вы не можете скачивать файлы
Наши партнеры: интернет магазин Ивановского трикотажа textilla.ru