Ивановский Торрент трекер
Яндекс.Погода
 

[Цитировать]
HUNTER

- Год выпуска: 2014
Страна: Япония
Жанр: комедия, махо-сёдзё
Продолжительность: ТВ-сериал, 12 эп. по 24 мин.
Выпуск: c 05.01.2014 по 23.03.2014-Перевод:
  • русские субтитры от YakuSub Studio (полные/вспомогательные)
    редакторы: KeeperRus, Sakurovna, переводчик: Nika_Elrik
-Режиссер: Мидзусима Цутому
Студия: J.C. Staff-Описание:
Хонока Такамия – ничем не примечательный старшеклассник, да еще с женским именем. Главная его проблема в том, что рядом вечно оказывается звезда класса и всей школы Аяка Кагари, окруженная поклонницами. При этом Аяка вовсе не «хрупкая лилия», а высокая и статная красавица, кстати, на голову выше щуплого Хоноки. Бедному парню мало назойливого шума и толкотни – самые безобидные его поступки трактуются фанатками как попытка подлизаться к их кумиру, за что несчастный бывает крепко бит. Ясно, что безвинная жертва старается держаться от соседки подальше и не верит, что такая девушка может обратить на него внимание. Конечно же, он крупно ошибался!
Чудом избежав смерти, Такамия узнал, что загадочная Кагари – его защитница и могущественная огненная ведьма из ковена «цеховых». Эта группировка противостоит «башенным» ведьмам, применяющим магию лишь для разрушения и удовольствия. Как выяснилось, в школе Фуюдзуки под личинами учениц хватает волшебниц всех мастей, которые ценят редких мужчин-магов, но используют их, мягко говоря, по-разному. Неудивительно, что Хонока быстро стал популярен в определенных кругах, чему оказался совсем не рад. Теперь лишь от прекрасной хранительницы зависит, доживет ли наш герой до весны юности, и сможет ли вообще ею насладиться! Вот только почему Аяка упорно зовет паренька «своей принцессой»?
© Hollow, World Art
Имя Хонока значит «проныра», фамилию Такамия можно прочесть как «храм цветов», а можно как «принц цветов». Фамилия и имя главной героини в японском написании начинаются и заканчиваются одним и тем же иероглифом «пламя», что подчеркивает ее сродство с огненной стихией.-Информационные ссылки: AniDB || World Art || MAL-Качество: BDRip
Энкод: Winter - RG Pantheon
Тип видео: без хардсаба, без линковки
Формат: mkv
Видео: x264 (Hi10p), 1280x720, ~4200 Kbps, 23.976 fps
Аудио JAP: Vorbis, 48000Hz, ~256 Kbps, 2ch
Аудио RUS: AC3, 48000Hz, ~192 Kbps, 2ch (внешними файлами)-

Список озвучек в раздаче

  • двухголосая (муж./жен.) от Nutbar & Kedra (Anifilm)

Список эпизодов

01. Takamiya-kun and the Fire Witch
02. Takamiya-kun and the Witches` Agenda

Скриншоты


Подробные тех. данные

Общее
Уникальный идентификатор : 248131625149211386069498000432999011838 (0xBAAC69A6DDDEEBDE8E0C955A211995FE)
Полное имя : Z:\Anime\720p\Witch Craft Works [BD] [720p]\[Winter] Witch Craft Works 01 [BDrip 1280x720 x264 Vorbis].mkv
Формат : Matroska
Версия формата : Version 2
Размер файла : 762 Мбайт
Продолжительность : 23 м.
Режим общего битрейта : Переменный
Общий поток : 4490 Кбит/сек
Дата кодирования : UTC 2014-03-26 20:04:41
Программа кодирования : mkvmerge v2.9.8 ('C'est le bon') built on Aug 13 2009 12:49:06
Библиотека кодирования : libebml v0.7.7 + libmatroska v0.8.1
Видео
Идентификатор : 1
Формат : AVC
Формат/Информация : Advanced Video Codec
Профиль формата : High 10@L4.1
Параметр CABAC формата : Да
Параметр ReFrames формата : 9 кадров
Идентификатор кодека : V_MPEG4/ISO/AVC
Продолжительность : 23 м.
Битрейт : 4145 Кбит/сек
Ширина : 1280 пикселей
Высота : 720 пикселей
Соотношение сторон : 16:9
Режим частоты кадров : Постоянный
Частота кадров : 23,976 кадра/сек
Цветовое пространство : YUV
Субдискретизация насыщенности : 4:2:0
Битовая глубина : 10 бит
Тип развёртки : Прогрессивная
Бит/(Пиксели*Кадры) : 0.188
Размер потока : 703 Мбайт (92%)
Библиотека кодирования : x264 core 132 r2309 3b1f1f7
Настройки программы : cabac=1 / ref=9 / deblock=1:-2:-2 / analyse=0x3:0x133 / me=umh / subme=9 / psy=1 / psy_rd=0.90:0.00 / mixed_ref=1 / me_range=24 / chroma_me=1 / trellis=2 / 8x8dct=1 / cqm=0 / deadzone=21,11 / fast_pskip=1 / chroma_qp_offset=-2 / threads=12 / lookahead_threads=2 / sliced_threads=0 / nr=0 / decimate=0 / interlaced=0 / bluray_compat=0 / constrained_intra=0 / bframes=8 / b_pyramid=2 / b_adapt=2 / b_bias=0 / direct=1 / weightb=1 / open_gop=0 / weightp=2 / keyint=250 / keyint_min=23 / scenecut=40 / intra_refresh=0 / rc=crf / mbtree=0 / crf=15.7 / qcomp=0.70 / qpmin=9 / qpmax=40 / qpstep=4 / ip_ratio=1.40 / pb_ratio=1.30 / aq=1:0.90 / zones=0,2589,b=1.3/24805,24859,b=1.4
Default : Нет
Forced : Нет
Аудио
Идентификатор : 2
Формат : Vorbis
Параметр Floor формата : 1
Идентификатор кодека : A_VORBIS
Продолжительность : 23 м.
Вид битрейта : Переменный
Битрейт : 256 Кбит/сек
Каналы : 2 канала
Частота : 48,0 КГц
Метод сжатия : С потерями
Размер потока : 43,4 Мбайт (6%)
Библиотека кодирования : libVorbis (Schaufenugget) (20101101 (Schaufenugget))
Язык : Japanese
Default : Да
Forced : Нет
- -

Информация о релизе

  • Выбор видео, перевода, озвучки, а также типа сборки материала осуществляется релизером и не подлежит обсуждению. Если вы считаете, что раздаваемый материал противоречит правилам раздела "Аниме" rutracker.org, сообщите об этом одному из модераторов раздела.
  • В случае появления нового материала или же лучшего по качеству материала релизер оставляет за собой право обновить раздачу. В этом случае вам необходимо ознакомиться с изменениями (добавлениями) и перекачать торрент.
  • Данный релиз предназначен для просмотра на ПК. Воспроизведение на иных проигрывателях не гарантируется. Для просмотра рекомендуется Media Player Classic с установленным пакетом кодеков K-Lite.
  • Данный релиз содержит 10-битное видео (Hi10p). Для корректного воспроизведения обязательно используйте кодеки, поддерживающие 10-битное видео.
    Обсудить частные случаи проблем с воспроизведением и получить дополнительную информацию можно здесь.

  • Данный релиз предназначен для просмотра с внешними субтитрами и внешними звуковыми дорожками.
    • Для просмотра с внешней звуковой дорожкой нужно:
      перекинуть файлы .mka из папки "RUS Sound [<автор(ы) озвучки>]" в одну папку с видео и переключить звуковую дорожку в плеере при просмотре. Как это сделать в разных плеерах подробно описано здесь.

    • Для просмотра с субтитрами нужно:
      перекинуть файлы .ass из папки "RUS Subtitles [<автор(ы) перевода>]" в одну папку с видео - плеер подгрузит их автоматически при открытии видео.
  • Если у вас возникли проблемы с просмотром, не связанные с описанным выше, сообщите о них автору раздачи посредством сообщения в теме или ЛС Aglenn.


Показать сообщения:    

Текущее время: 17-Дек 00:44

Часовой пояс: UTC ± 0


Вы не можете начинать темы
Вы не можете отвечать на сообщения
Вы не можете редактировать свои сообщения
Вы не можете удалять свои сообщения
Вы не можете голосовать в опросах
Вы не можете прикреплять файлы к сообщениям
Вы не можете скачивать файлы

!ВНИМАНИЕ!
Сайт не предоставляет электронные версии произведений, а занимается лишь коллекционированием и каталогизацией ссылок, присылаемых и публикуемых на форуме нашими читателями. Если вы являетесь правообладателем какого-либо представленного материала и не желаете, чтобы ссылка на него находилась в нашем каталоге, свяжитесь с нами, и мы незамедлительно удалим ее. Файлы для обмена на трекере предоставлены пользователями сайта, и администрация не несет ответственности за их содержание. Просьба не заливать файлы, защищенные авторскими правами, а также файлы нелегального содержания!