Ивановский Торрент трекер
Яндекс.Погода
 

[Цитировать]
HUNTER

"Вега" летит в прошлое
Дата/Год выпуска: 1984
Страна: СССР
Жанр: научно-популярный
Продолжительность: 00:15:55
Перевод: Не требуется
Режиссер: В. Иванов
Описание: Это фильм об уникальном эксперименте, который привлёк учёных всего мира. Он объединил усилия специалистов многих стран для осуществления дерзкого замысла- направить космический корабль к одному из самых таинственных тел Вселенной- комете. Запуск созданной в Советском Союзе автоматической межпланетной станции "Вега-1" к Венере, а затем к комете Галлея осуществлён. С её помощью учёные надеются обнаружить правещество, которое почти пять миллиардов лет назад послужило строительным материалом для Солнца, планет, в том числе и нашей Земли.
Доп. информация: Фильм оцифрован с киноплёнки 16-мм из личного архива
качество: VHSRip
формат: AVI
Видео: XviD, 4:3, 720х544, 1754 kbps, 25 fps
Аудио: МР-3, 128 kbps, 48 kHz, 2 ch (моно)

MediaInfo

ОбщееПолное имя :Вега летит в прошлое.aviФормат : AVIФормат/Информация : Audio Video InterleaveРазмер файла : 200 МбайтПродолжительность : 15 м.Общий поток : 1754 Кбит/секПрограмма кодирования : VirtualDubMod 1.5.4.1 (build 2178/release)Библиотека кодирования : VirtualDubMod build 2178/release
ВидеоИдентификатор : 0Формат : MPEG-4 VisualПрофиль формата : Advanced Simple@L5Параметр BVOP формата : 1Параметр QPel формата : НетПараметр GMC формата : Без точки переходаПараметр матрицы формата : ВыборочнаяИдентификатор кодека : XVIDИдентификатор кодека/Подсказка : XviDПродолжительность : 15 м.Битрейт : 1619 Кбит/секШирина : 720 пикселейВысота : 544 пикселяСоотношение сторон : 4:3Частота кадров : 25,000 кадров/секЦветовое пространство : YUVСубдискретизация насыщенности : 4:2:0Битовая глубина : 8 битТип развёртки : ПрогрессивнаяМетод сжатия : С потерямиБит/(Пиксели*Кадры) : 0.165Размер потока : 184 Мбайт (92%)Библиотека кодирования : XviD 64
АудиоИдентификатор : 1Формат : MPEG AudioВерсия формата : Version 1Профиль формата : Layer 3Режим : Joint stereoРасширение режима : MS StereoИдентификатор кодека : 55Идентификатор кодека/Подсказка : MP3Продолжительность : 15 м.Вид битрейта : ПостоянныйБитрейт : 128 Кбит/секКаналы : 2 каналаЧастота : 48,0 КГцМетод сжатия : С потерямиРазмер потока : 14,6 Мбайт (7%)Выравнивание : Соединение по промежуткамПродолжительность промежутка : 80 мс. (2,00 видеокадра)Время предзагрузки промежутка : 504 мс.Библиотека кодирования : LAME3.98rНастройки программы : -m j -V 4 -q 2 -lowpass 17 -b 128

Скриншоты

, , ,


Показать сообщения:    

Текущее время: 13-Дек 18:55

Часовой пояс: UTC ± 0


Вы не можете начинать темы
Вы не можете отвечать на сообщения
Вы не можете редактировать свои сообщения
Вы не можете удалять свои сообщения
Вы не можете голосовать в опросах
Вы не можете прикреплять файлы к сообщениям
Вы не можете скачивать файлы

!ВНИМАНИЕ!
Сайт не предоставляет электронные версии произведений, а занимается лишь коллекционированием и каталогизацией ссылок, присылаемых и публикуемых на форуме нашими читателями. Если вы являетесь правообладателем какого-либо представленного материала и не желаете, чтобы ссылка на него находилась в нашем каталоге, свяжитесь с нами, и мы незамедлительно удалим ее. Файлы для обмена на трекере предоставлены пользователями сайта, и администрация не несет ответственности за их содержание. Просьба не заливать файлы, защищенные авторскими правами, а также файлы нелегального содержания!