Ивановский Торрент трекер
Яндекс.Погода
Статистика раздачи
Размер:  1.02 GB   |    Зарегистрирован:  2 года 7 месяцев   |    Скачан:  14 раз
Сидов:  1  [  0 KB/s  ]   Личеров:  3  [  0 KB/s  ]   Подробная статистика пиров
 
     
 
 
 

[Цитировать]
HUNTER

Веб-дизайн в Photoshop. Детальное руководство по дизайну сайтов--

  • Год выпуска: 2015
  • Страна: Россия
  • Тематика: Создание и дизайн сайта
  • Тип материала: Обучающее видео
  • Продолжительность: 13:02:08
  • Автор: Вероника Полякова - Онлайн-школа дизайна Firefly Design
  • Язык: Русский-
  • Описание:
    Курс «Веб-дизайн» подробно освящает тему создания профессионального дизайна сайтов. Цель данного курса — научить студентов создавать по-настоящему эффективные, современные и стильные сайты. Курс отражает новейшие тренды в веб-дизайне, предоставляет студентам мощный инструментарий для дальнейшего развития и профессионального роста в этой области.
    Предназначен для графических дизайнеров, веб-дизайнеров, специалистов с базовым уровнем владения Photoshop и Illustrator и всех, кто занимается заказом и исполнением заказов на дизайн сайтов.

    Программа курса:


    Урок 1. Основные понятия.
    Что такое веб-дизайн: цели и задачи.
    Этапы создания сайта: UI, визуализации, верстка, программирование, CMS, seo, продвижение.
    Кто такой веб-дизайнер: его задачи и навыки.
    Инструментарий веб-дизайнера: Photoshop, Illustrator, After Effects.
    Урок 2. Дизайн landing page.
    UI (прототип), скетч, детализация.
    Основы работы с разрешением экрана.
    Фотографии, стоки, готовые элементы.
    Особенности веб-шрифтов.
    Дизайн landing page с нуля.
    Урок 3. Адаптивный дизайн и мобильный сайт.
    Работа с динамичным разрешением.
    Основы верстки: масштабирование, резиновый дизайн.
    Дизайн мобильной версии сайта.
    Урок 4. Многостраничные сайты.
    Прототипирование, модульная сетка, подбор визуального стиля.
    Типы веб-сайтов и их отличия.
    Дизайн интернет-магазина с нуля.
    Урок 5. Выбор стилистического решения.
    Композиция и цвет в веб-дизайне.
    Инструментарий: 3д, анимация, ручные материалы, графический дизайн.
    Единство и контраст в веб-дизайне.
    Основы веб-типографики.
    Урок 6. Работа над концепцией.
    Поиск идей, референсы.
    Примеры концептуальных решений.
    Полезные ресурсы.
    Сторителлинг, сценарии.
    Mindmaps, brainstorming.
    Урок 7. Графические элементы в веб.
    Использование текстур, паттернов, градиентов.
    Новейшие тренды в веб-дизайне.
    Активные элементы: кнопки, ссылки.
    Шаблонные элементы: слайдеры, карусели.
    Проработка деталей.
    Урок 8. Эффект параллакса.
    Технический дизайн в веб.
    Создание сложного макета с анимацией.
    Сайт с эффектом параллакса.
    --
  • Качество: PCRec
  • Формат: MP4
  • Видео кодек: AVC
  • Аудио кодек: AAC
  • Видео: avc1, 1280х720, 1920х1080, ~68,6 — 1105 kbps, 15 — 25 fps
  • Аудио: AAC, 44.1 — 48 KHz, 2 ch stereo, 108 Kbps
--

MI

Код: copyText_writeLink('this.parentNode.parentNode.nextSibling.nextSibling');
Общее
Полное имя : C:\Веб-дизайн. Детальное руководство по дизайну сайтов - 2015\Урок 8.1.mp4
Формат : MPEG-4
Профиль формата : Base Media / Version 2
Идентификатор кодека : mp42
Размер файла : 44,4 Мбайт
Продолжительность : 42 м.
Общий поток : 147 Кбит/сек
Исполнитель : "Recording #836047"
Программа кодирования : Machete 4.1
Видео
Идентификатор : 1
Формат : AVC
Формат/Информация : Advanced Video Codec
Профиль формата : Main@L3.1
Параметр CABAC формата : Да
Параметр ReFrames формата : 4 кадра
Идентификатор кодека : avc1
Идентификатор кодека/Информация : Advanced Video Coding
Продолжительность : 42 м.
Продолжительность оригинала : 42 м.
Битрейт : 68,6 Кбит/сек
Ширина : 1280 пикселей
Высота : 720 пикселей
Соотношение сторон : 16:9
Режим частоты кадров : Постоянный
Частота кадров : 15,000 кадров/сек
Цветовое пространство : YUV
Субдискретизация насыщенности : 4:2:0
Битовая глубина : 8 бит
Тип развёртки : Прогрессивная
Бит/(Пиксели*Кадры) : 0.005
Размер потока : 20,7 Мбайт (47%)
Размер потока оригинала : 23,0 Мбайт (52%)
Библиотека кодирования : x264 core 132
Настройки программы : cabac=1 / ref=1 / deblock=1:0:0 / analyse=0x1:0x111 / me=hex / subme=2 / psy=1 / psy_rd=1.00:0.00 / mixed_ref=0 / me_range=16 / chroma_me=1 / trellis=0 / 8x8dct=0 / cqm=0 / deadzone=21,11 / fast_pskip=1 / chroma_qp_offset=0 / threads=4 / lookahead_threads=1 / sliced_threads=0 / nr=0 / decimate=1 / interlaced=0 / bluray_compat=0 / constrained_intra=0 / bframes=3 / b_pyramid=2 / b_adapt=1 / b_bias=0 / direct=1 / weightb=1 / open_gop=0 / weightp=1 / keyint=250 / keyint_min=15 / scenecut=40 / intra_refresh=0 / rc_lookahead=10 / rc=crf / mbtree=1 / crf=26.0 / qcomp=0.60 / qpmin=0 / qpmax=69 / qpstep=4 / ip_ratio=1.40 / aq=1:1.00
Язык : English
mdhd_Duration : 2530398
Аудио
Идентификатор : 2
Формат : AAC
Формат/Информация : Advanced Audio Codec
Профиль формата : LC
Идентификатор кодека : 40
Продолжительность : 42 м.
Вид битрейта : Постоянный
Битрейт : 64,0 Кбит/сек
Каналы : 2 канала
Расположение каналов : Front: L R
Частота : 44,1 КГц
Метод сжатия : С потерями
Размер потока : 19,3 Мбайт (43%)
Язык : English
mdhd_Duration : 2530414
Код: copyText_writeLink('this.parentNode.parentNode.nextSibling.nextSibling');
Общее
Полное имя                               : C:\Веб-дизайн. Детальное руководство по дизайну сайтов - 2015\Урок 8.2.mov
Формат                                   : MPEG-4
Профиль формата                          : QuickTime
Идентификатор кодека                     : qt
Размер файла                             : 158 Мбайт
Продолжительность                        : 18 м.
Общий поток                              : 1218 Кбит/сек
Дата кодирования                         : UTC 2015-02-24 13:41:59
Дата пометки                             : UTC 2015-02-24 14:05:34
Библиотека кодирования                   : Apple QuickTime
©TIM                                     : 00:00:00:00
©TSC                                     : 25
©TSZ                                     : 1
Видео
Идентификатор                            : 1
Формат                                   : AVC
Формат/Информация                        : Advanced Video Codec
Профиль формата                          : Main@L4.0
Параметр CABAC формата                   : Нет
Параметр ReFrames формата                : 2 кадра
Параметр GOP формата                     : M=1, N=50
Идентификатор кодека                     : avc1
Идентификатор кодека/Информация          : Advanced Video Coding
Продолжительность                        : 18 м.
Битрейт                                  : 1105 Кбит/сек
Ширина                                   : 1920 пикселей
Высота                                   : 1080 пикселей
Соотношение сторон                       : 16:9
Режим частоты кадров                     : Постоянный
Частота кадров                           : 25,000 кадров/сек
Цветовое пространство                    : YUV
Субдискретизация насыщенности            : 4:2:0
Битовая глубина                          : 8 бит
Тип развёртки                            : Прогрессивная
Бит/(Пиксели*Кадры)                      : 0.021
Размер потока                            : 144 Мбайт (91%)
Язык                                     : English
Дата кодирования                         : UTC 2015-02-24 13:41:59
Дата пометки                             : UTC 2015-02-24 14:05:34
Основные цвета                           : BT.709
Характеристики трансфера                 : BT.709
Коэффициенты матрицы                     : BT.709
Аудио
Идентификатор                            : 2
Формат                                   : AAC
Формат/Информация                        : Advanced Audio Codec
Профиль формата                          : LC
Идентификатор кодека                     : 40
Продолжительность                        : 18 м.
Продолжительность оригинала              : 18 м.
Вид битрейта                             : Постоянный
Битрейт                                  : 108 Кбит/сек
Номинальный битрейт                      : 128 Кбит/сек
Каналы                                   : 2 канала
Расположение каналов                     : Front: L R
Частота                                  : 48,0 КГц
Метод сжатия                             : С потерями
Размер потока                            : 14,0 Мбайт (9%)
Размер потока оригинала                  : 14,0 Мбайт (9%)
Язык                                     : English
Дата кодирования                         : UTC 2015-02-24 13:42:00
Дата пометки                             : UTC 2015-02-24 14:05:34
Прочее
Идентификатор                            : 3
Тип                                      : Time code
Формат                                   : QuickTime TC
Продолжительность                        : 18 м.
Временной код первого кадра              : 00:00:00:00
Параметры временного кода                : Striped
Язык                                     : English
Дата кодирования                         : UTC 2015-02-24 14:05:34
Дата пометки                             : UTC 2015-02-24 14:05:34

Скриншоты


[iv-torrents.ru].t44032.torrent
Торрент: Зарегистрирован [ 2015-05-03 12:36 ] · BD16FB3C5076BD636DE85706091722E5B78AC77F

Скачать .torrent

Скачать

11 KB

Статус: проверено
Скачан: 14 раз
Размер: 1.02 GB
terms.php


Быстрый ответ

Имя:

               
       
     
Для отправки сообщений необходимо включить JavaScript
Показать сообщения:    

Текущее время: 14-Дек 00:45

Часовой пояс: UTC ± 0


Вы можете начинать темы
Вы можете отвечать на сообщения
Вы не можете редактировать свои сообщения
Вы не можете удалять свои сообщения
Вы не можете голосовать в опросах
Вы не можете прикреплять файлы к сообщениям
Вы можете скачивать файлы

!ВНИМАНИЕ!
Сайт не предоставляет электронные версии произведений, а занимается лишь коллекционированием и каталогизацией ссылок, присылаемых и публикуемых на форуме нашими читателями. Если вы являетесь правообладателем какого-либо представленного материала и не желаете, чтобы ссылка на него находилась в нашем каталоге, свяжитесь с нами, и мы незамедлительно удалим ее. Файлы для обмена на трекере предоставлены пользователями сайта, и администрация не несет ответственности за их содержание. Просьба не заливать файлы, защищенные авторскими правами, а также файлы нелегального содержания!