Важное объявление!
У Нас Все раздачи мультитрекерные, при нуле пиров в релизах, можете смело вставать на закачку!
 
Автор Сообщение

HUNTER

Стаж:
4 года 9 месяцев
Сообщений:
65021

Репутация: 101

[+] [-]
Вне форума [Профиль] [ЛС]

Вдова Дракулы / Леди Дракула / Dracula's Widow / Lady Dracula
Страна: США
Студия: De Laurentiis Entertainment Group
Жанр: ужасы, готика
Год выпуска: 1988
Продолжительность: 01:22:22
Перевод: Профессиональный (двухголосый закадровый) студия Ракурс
Cубтитры: немецкие
Оригинальная аудиодорожка: английский
Режиссер: Кристофер Коппола / Christopher Coppola
В ролях: Джозеф Соммер, Сильвия Кристель, Ленни Фон Долен, Марк Коппола
Описание: Молодой владелец музея восковых фигур в Голливуде получает пять ящиков с румынскими античными артефактами вместо заказанных шести. Он не подозревает, что Ванесса, вдова графа Дракулы, спит в шестом ящике. Ночью она поднимается со своего ложа и отправляется на поиски крови. Тем временем в музей пробираются воры, один из которых становится первой жертвой Ванессы. Второй вор, ставший свидетелем этого, отправляется в полицию и пытается отправить ее в музей восковых фигур. Одновременно внук доктора Ван Хельсинга начинает свою охоту на появившуюся вампиршу…
Абсолютно пустой фильм: даже Сильвия Кристель не обнажилась. Актриса Сильвия Кристель также снялась в картинах «Эммануэль» (1974), «Эммануэль-2» (1975), «Прощай, Эммануэль» (1977), «Любовь в первом классе» (1979), «Спасите Конкорд» (1979), «Любовник леди Чаттерлей» (1981), «Частные уроки» (1981), «Частная школа» (1983), «Эммануэль-4» (1984), «Мата Хари» (1985), «Красная жара» (1985), «Горячая кровь» (1990). Актриса родилась в 1952 году в Голландии и в 17 лет начала заниматься модельным бизнесом. Самый успешный фильм в ее карьере, как это ни странно, не «Эммануэль», а «Частные уроки», собравший по всему миру более 50 миллионов долларов. Кристель разговаривает на четырех языках: немецком, английском, итальянском и французском. Она выиграла конкурс красоты «Мисс TV Europe», что послужило началом ее кинокарьеры. У Сильвии очень высокий умственный коэффициент: 164, в результате чего она перешагнула через четыре класса школы. Ее семья была очень религиозной. В детстве актриса хотела быть учительницей. В молодости Сильвия работала в баре, секретарем и даже на автозаправочной станции, пока пыталась пробиться в модельный бизнес. В 2005 году у нее обнаружили рак горла, который распространялся на легкие. Была необходима операция. Ее семья владела в Утрехте небольшим отелем. Когда имелись свободные номера, Сильвия и ее сестра Марианна жили в номере 21. Когда появлялся клиент, то их перекидывали в номер 22. Часто это случалось посреди ночи. Когда Сильвии было 16 лет, ее отец привел в дом женщину и сказал, что она будет его следующей женой. Матери актрисы и ее сестре пришлось переехать в небольшую комнатку. За роль в картине «Эммануэль» актриса получила 6 тысяч долларов, за роль во втором фильме-уже 100 тысяч.
Доп. информация: Русская звуковая дорожка взята с этой раздачи http://rutracker.org/forum/viewtopic.php?t=2620969 автору большое спасибо.
При пересборе двд были использованы программы: BeSweet в связке с BeLight – распаковка звука в формат WAV
Sony Vegas – синхронизация и кодирование в AC3
PgcDemux - разделение компонентов диска на файлы
Muxman - мультиплексирование и авторинг DVD
VobBlanker - реавторинг DVD

Скрин завершения проекта

Бонусы: Трейлер
Сэмпл: http://sendfile.su/1061390
Тип релиза: DVD9 (Custom)
Контейнер: DVD-Video
Видео: PAL 16:9 (720x576) VBR Auto Pan&Scan
Аудио: Russian (Dolby AC3, 192 Кбит/сек, 2 ch)
Аудио 2: English (Dolby AC3, 192 Кбит/сек, 2 ch)
Аудио 3: Deutsch (Dolby AC3, 192 Кбит/сек, 2 ch)
Аудио 4: Espanol (Dolby AC3, 192 Кбит/сек, 2 ch)
Формат субтитров: softsub (SRT)

DVDInfo

Size: 4.71 Gb ( 4 937 966 KBytes ) - DVD-9
Enabled regions: 1, 2, 3, 4, 5, 6, 7, 8
VTS_01 :
Play Length: 00:00:10+00:00:22
Video: PAL 16:9 (720x576) VBR, Auto Pan&Scan
Audio:
Not specified (Dolby AC3, 6 ch)
VTS_02 :
Play Length: 01:22:22
Video: PAL 16:9 (720x576) VBR, Auto Pan&Scan
Audio:
Russian (Dolby AC3, 2 ch)
English (Dolby AC3, 2 ch)
Deutsch (Dolby AC3, 2 ch)
Espanol (Dolby AC3, 2 ch)
Subtitles:
Deutsch
Italiano
Espanol
English
Nepali
Deutsch
Italiano
Espanol
Espanol
Nepali
Deutsch
Deutsch
VTS_03 :
Play Length: 00:01:53+00:01:07
Video: PAL 16:9 (720x576) VBR, Auto Pan&Scan
Audio:
English (Dolby AC3, 2 ch)
Menu Video:
PAL 16:9 (720x576) VBR
Auto Pan&Scan
Menu Audio:
Not specified (Dolby AC3, 2 ch)
Menu Subtitles:
Not specified
Menu English Language Unit :
Root Menu

MediaInfo

Общее
Полное имя : I:\Dracula's Widow_1988\VIDEO_TS\VTS_02_1.VOB
Формат : MPEG-PS
Размер файла : 1024 Мбайт
Продолжительность : 19 м.
Режим общего битрейта : Переменный
Общий поток : 7327 Кбит/сек
Видео
Идентификатор : 224 (0xE0)
Формат : MPEG Video
Версия формата : Version 2
Профиль формата : Main@Main
Параметр BVOP формата : Да
Параметр матрицы формата : Выборочная
Продолжительность : 19 м.
Вид битрейта : Переменный
Битрейт : 6413 Кбит/сек
Максимальный битрейт : 8100 Кбит/сек
Ширина : 720 пикселей
Высота : 576 пикселей
Соотношение сторон : 2,40:1
Частота кадров : 25,000 кадров/сек
Стандарт вещания : PAL
Цветовое пространство : YUV
Субдискретизация насыщенности : 4:2:0
Битовая глубина : 8 бит
Тип развёртки : Чересстрочная
Порядок развёртки : Верхнее поле первое
Метод сжатия : С потерями
Бит/(Пиксели*Кадры) : 0.619
Размер потока : 896 Мбайт (88%)
Аудио #1
Идентификатор : 189 (0xBD)-128 (0x80)
Формат : AC-3
Формат/Информация : Audio Coding 3
Расширение режима : CM (complete main)
Параметр Endianness формата : Big
Режим смешивания : DVD-Video
Продолжительность : 19 м.
Вид битрейта : Постоянный
Битрейт : 192 Кбит/сек
Каналы : 2 канала
Расположение каналов : Front: L R
Частота : 48,0 КГц
Битовая глубина : 16 бит
Метод сжатия : С потерями
Размер потока : 26,8 Мбайт (3%)
Аудио #2
Идентификатор : 189 (0xBD)-129 (0x81)
Формат : AC-3
Формат/Информация : Audio Coding 3
Расширение режима : CM (complete main)
Параметр Endianness формата : Big
Режим смешивания : DVD-Video
Продолжительность : 19 м.
Вид битрейта : Постоянный
Битрейт : 192 Кбит/сек
Каналы : 2 канала
Расположение каналов : Front: L R
Частота : 48,0 КГц
Битовая глубина : 16 бит
Метод сжатия : С потерями
Размер потока : 26,8 Мбайт (3%)
Аудио #3
Идентификатор : 189 (0xBD)-130 (0x82)
Формат : AC-3
Формат/Информация : Audio Coding 3
Расширение режима : CM (complete main)
Параметр Endianness формата : Big
Режим смешивания : DVD-Video
Продолжительность : 19 м.
Вид битрейта : Постоянный
Битрейт : 192 Кбит/сек
Каналы : 2 канала
Расположение каналов : Front: L R
Частота : 48,0 КГц
Битовая глубина : 16 бит
Метод сжатия : С потерями
Размер потока : 26,8 Мбайт (3%)
Аудио #4
Идентификатор : 189 (0xBD)-131 (0x83)
Формат : AC-3
Формат/Информация : Audio Coding 3
Расширение режима : CM (complete main)
Параметр Endianness формата : Big
Режим смешивания : DVD-Video
Продолжительность : 19 м.
Вид битрейта : Постоянный
Битрейт : 192 Кбит/сек
Каналы : 2 канала
Расположение каналов : Front: L R
Частота : 48,0 КГц
Битовая глубина : 16 бит
Метод сжатия : С потерями
Размер потока : 26,8 Мбайт (3%)
Меню

Постеры и обложка

Скриншоты меню


_________________
Показать сообщения:    

Текущее время: Сегодня 16:50

Часовой пояс: GMT



Вы не можете начинать темы
Вы не можете отвечать на сообщения
Вы не можете редактировать свои сообщения
Вы не можете удалять свои сообщения
Вы не можете голосовать в опросах
Вы не можете прикреплять файлы к сообщениям
Вы не можете скачивать файлы