Важное объявление!
У Нас Все раздачи мультитрекерные, при нуле пиров в релизах, можете смело вставать на закачку!
 
Автор Сообщение

HUNTER

Стаж:
4 года 9 месяцев
Сообщений:
65070

Репутация: 101

[+] [-]
Вне форума [Профиль] [ЛС]

Вдали от нее / Далеко от нее / Away from Her
Год выпуска: 2006
Страна: Канада, Великобритания, США
Жанр: драма
Продолжительность: 01:49:46
Перевод №1: профессиональный двухголосый закадровый (R5)
Перевод №2: одноголосный закадровый (lehachuev)
Cубтитры: русские, английские
Оригинальная аудиодорожка: английская
Оглавление: 16 англоязычных глав
Режиссёр: Сара Полли /Sarah Polley/
В ролях: Джули Кристи /Julie Christie/, Гордон Пинсент /Gordon Pinsent/, Олимпия Дукакис /Olympia Dukakis/, Майкл Мерфи /Michael Murphy/, Кристен Томсон /Kristen Thomson/, Венди Крюсон /Wendy Crewson/
Описание:
Фиона и Грант, супружеская пара из Онтарио, женаты уже более 40 лет. Теперь, когда жизнь клонится к закату, они вынуждены признать: «забывчивость» Фионы — на самом деле проявление болезни Альцгеймера, и женщине необходимо лечиться.
Впервые за долгие годы супругам предстоит продолжительная разлука. По правилам лечебницы, в первый месяц посетители не допускаются, чтобы больному было легче адаптироваться к новым условиям. Когда Грант наконец навещает Фиону, он с ужасом видит, что она не только забыла его, но и отдала свое сердце другому мужчине.
Дополнительная информация:
IMDB User Rating→: 7.6/10 (19,048 votes)
Рейтинг фильма КиноПоиск.Ru→: 7.346 (1899 голосов)
Качество: WEB-DL (NTb)
Контейнер: MKV
Видеопоток: 1920x1080, 23.976 fps, x264 ~13387 kbps
Аудиопоток №1 (RUS): DD 5.1, 48 kHz, 384 kbps | профессиональный двухголосый закадровый (R5)
Аудиопоток №2 (RUS): DD 2.0, 48 kHz, 192 kbps | одноголосный закадровый (lehachuev)
Аудиопоток №3 (ENG): DD 5.1, 48 kHz, 448 kbps | DVD R1
Аудиопоток №3 (ENG): DD+ 5.1, 48 kHz, 640 kbps | Amazon
Аудиопоток №3 (ENG): AAC-LC 2.0, 48 kHz, ~77 kbps | комментарии актрисы Джули Кристи
Субтитры №1 (RUS): SRT/UTF8 | R5
Субтитры №2 (RUS): SRT/UTF8 | VeraM
Субтитры №3 (ENG): SRT/UTF8
Сэмпл: Яндекс.Диск→

MediaInfo

Код:
General
Unique ID                   : 211922615638020598498655626681910353481 (0x9F6ECFA68B51B87395BDBAFE86D0DE49)
Complete name               : Away.from.Her.2006.1080p.WEB-DL.x264.DD.SRT-NTb.mkv
Format                      : Matroska
Format version              : Version 4 / Version 2
File size                   : 11.6 GiB
Duration                    : 1h 49mn
Overall bit rate mode       : Variable
Overall bit rate            : 15.1 Mbps
Movie name                  : Away from Her (2006) 1080p WEB-DL
Encoded date                : UTC 2016-10-16 04:31:06
Writing application         : mkvmerge v8.3.0 ('Over the Horizon') 64bit
Writing library             : libebml v1.3.1 + libmatroska v1.4.2
DURATION                    : 01:49:47.488000000
NUMBER_OF_FRAMES            : 205859
NUMBER_OF_BYTES             : 158099712
_STATISTICS_WRITING_APP     : mkvmerge v8.3.0 ('Over the Horizon') 64bit
_STATISTICS_WRITING_DATE_UT : 2016-10-16 04:31:06
_STATISTICS_TAGS            : BPS DURATION NUMBER_OF_FRAMES NUMBER_OF_BYTES
Video
ID                          : 1
Format                      : AVC
Format/Info                 : Advanced Video Codec
Format profile              : High@L4
Format settings, CABAC      : Yes
Format settings, ReFrames   : 4 frames
Codec ID                    : V_MPEG4/ISO/AVC
Duration                    : 1h 49mn
Bit rate mode               : Variable
Maximum bit rate            : 15.0 Mbps
Width                       : 1 920 pixels
Height                      : 1 080 pixels
Display aspect ratio        : 16:9
Frame rate mode             : Constant
Frame rate                  : 23.976 fps
Color space                 : YUV
Chroma subsampling          : 4:2:0
Bit depth                   : 8 bits
Scan type                   : Progressive
Title                       : 1920x1080, 23.976 fps, x264 ~13387 kbps
Writing library             : x264 core 148 r2623 d5b2374
Encoding settings           : cabac=1 / ref=4 / deblock=1:-1:-1 / analyse=0x3:0x133 / me=umh / subme=9 / psy=1 / psy_rd=1.00:0.15 / mixed_ref=1 / me_range=24 / chroma_me=1 / trellis=2 / 8x8dct=1 / cqm=0 / deadzone=21,11 / fast_pskip=1 / chroma_qp_offset=-3 / threads=34 / lookahead_threads=5 / sliced_threads=0 / nr=150 / decimate=1 / interlaced=0 / bluray_compat=0 / constrained_intra=0 / bframes=8 / b_pyramid=2 / b_adapt=2 / b_bias=0 / direct=3 / weightb=1 / open_gop=0 / weightp=2 / keyint=120 / keyint_min=61 / scenecut=0 / intra_refresh=0 / rc_lookahead=120 / rc=crf / mbtree=1 / crf=18.0 / qcomp=0.60 / qpmin=0 / qpmax=69 / qpstep=4 / vbv_maxrate=15000 / vbv_bufsize=31250 / crf_max=0.0 / nal_hrd=vbr / filler=0 / ip_ratio=1.40 / aq=3:1.00
Language                    : English
Default                     : Yes
Forced                      : No
Color range                 : Limited
Color primaries             : BT.709
Transfer characteristics    : BT.709
Matrix coefficients         : BT.709
Audio #1
ID                          : 2
Format                      : AC-3
Format/Info                 : Audio Coding 3
Mode extension              : CM (complete main)
Format settings, Endianness : Big
Codec ID                    : A_AC3
Duration                    : 1h 49mn
Bit rate mode               : Constant
Bit rate                    : 384 Kbps
Channel(s)                  : 6 channels
Channel positions           : Front: L C R, Side: L R, LFE
Sampling rate               : 48.0 KHz
Compression mode            : Lossy
Stream size                 : 302 MiB (3%)
Title                       : RUS DVO R5 DD 5.1, 48 kHz, 384 kbps
Language                    : Russian
Default                     : Yes
Forced                      : No
Audio #2
ID                          : 3
Format                      : AC-3
Format/Info                 : Audio Coding 3
Mode extension              : CM (complete main)
Format settings, Endianness : Big
Codec ID                    : A_AC3
Duration                    : 1h 49mn
Bit rate mode               : Constant
Bit rate                    : 192 Kbps
Channel(s)                  : 2 channels
Channel positions           : Front: L R
Sampling rate               : 48.0 KHz
Compression mode            : Lossy
Stream size                 : 151 MiB (1%)
Title                       : RUS VO lehachuev DD 2.0, 48 kHz, 192 kbps
Language                    : Russian
Default                     : No
Forced                      : No
Audio #3
ID                          : 4
Format                      : AC-3
Format/Info                 : Audio Coding 3
Mode extension              : CM (complete main)
Format settings, Endianness : Big
Codec ID                    : A_AC3
Duration                    : 1h 49mn
Bit rate mode               : Constant
Bit rate                    : 448 Kbps
Channel(s)                  : 6 channels
Channel positions           : Front: L C R, Side: L R, LFE
Sampling rate               : 48.0 KHz
Compression mode            : Lossy
Stream size                 : 352 MiB (3%)
Title                       : ENG DVD R1 DD 5.1, 48 kHz, 448 kbps
Language                    : English
Default                     : No
Forced                      : No
Audio #4
ID                          : 5
Format                      : E-AC-3
Format/Info                 : Audio Coding 3
Format settings, Endianness : Big
Codec ID                    : A_EAC3
Duration                    : 1h 49mn
Bit rate mode               : Constant
Bit rate                    : 640 Kbps
Channel(s)                  : 6 channels
Channel positions           : Front: L C R, Side: L R, LFE
Sampling rate               : 48.0 KHz
Compression mode            : Lossy
Stream size                 : 503 MiB (4%)
Title                       : ENG Amazon DD+ 5.1, 48 kHz, 640 kbps
Language                    : English
Default                     : No
Forced                      : No
Audio #5
ID                          : 6
Format                      : AAC
Format/Info                 : Advanced Audio Codec
Format profile              : LC
Codec ID                    : A_AAC
Duration                    : 1h 49mn
Channel(s)                  : 2 channels
Channel positions           : Front: L R
Sampling rate               : 48.0 KHz
Compression mode            : Lossy
Delay relative to video     : 9ms
Title                       : ENG Commentary AAC-LC 2.0, 48 kHz, ~77 kbps
Language                    : English
Default                     : No
Forced                      : No
Text #1
ID                          : 7
Format                      : UTF-8
Codec ID                    : S_TEXT/UTF8
Codec ID/Info               : UTF-8 Plain Text
Title                       : RUS R5 SRT
Language                    : Russian
Default                     : No
Forced                      : No
Text #2
ID                          : 8
Format                      : UTF-8
Codec ID                    : S_TEXT/UTF8
Codec ID/Info               : UTF-8 Plain Text
Title                       : RUS VeraM SRT
Language                    : Russian
Default                     : No
Forced                      : No
Text #3
ID                          : 9
Format                      : UTF-8
Codec ID                    : S_TEXT/UTF8
Codec ID/Info               : UTF-8 Plain Text
Title                       : ENG SRT
Language                    : English
Default                     : No
Forced                      : No
Menu
00:00:00.000                : en:Spark of Life
00:06:33.977                : en:Introduction
00:14:12.977                : en:Caregivers
00:21:19.236                : en:A Real Charmer
00:29:24.054                : en:Forty Four Years
00:39:34.872                : en:Little Bit of Grace
00:45:13.544                : en:A New Friend
00:51:46.729                : en:Day by Day
01:01:35.775                : en:Persistent
01:05:11.116                : en:Meadowlake
01:09:43.554                : en:I'm Her Husband
01:17:08.249                : en:Letters From Iceland
01:20:02.673                : en:Field Trip
01:26:16.797                : en:The Second Floor
01:33:44.202                : en:Just Be Happy
01:45:46.799                : en:End Credits

Скриншоты



_________________
Показать сообщения:    

Текущее время: Сегодня 22:28

Часовой пояс: GMT



Вы не можете начинать темы
Вы не можете отвечать на сообщения
Вы не можете редактировать свои сообщения
Вы не можете удалять свои сообщения
Вы не можете голосовать в опросах
Вы не можете прикреплять файлы к сообщениям
Вы не можете скачивать файлы