Ивановский Торрент трекер
Яндекс.Погода
 

[Цитировать]
HUNTER

Планета Земля: Львы пустыни & Снежные леопарды
Planet Earth - Natural World: Desert Lions & Snow Leopards
- Год выпуска: 2010
Страна: Великобритания, BBC, 2 Entertain Video
Жанр: документальный
Продолжительность: 00:48:52 + 0:49:23
Перевод: Студийный (одноголосый закадровый) студия "Кипарис"
Русские субтитры: нет
Оригинальная аудиодорожка: нет-Режиссер: Дэвид Аттенборо / David Attenborough-Описание: Намиб - древнейшая пустыня на земле. Безжалостная и непрощающая, постичь её нелегко. Изменчивые воды Берега скелетов закрывают доступ к пустыне по всей её длине. Неудивительно, что Намиб так хорошо хранит свои секреты. Когда-то здесь жили львы. Однако они были подобны призракам, их редко кто видел. Потом, более двадцати лет назад, они куда-то исчезли. И сегодня один человек решил бросить вызов пустыне. Им движет вера, что самые удивительные львы Африки постепенно возвращаются...
Добро пожаловать в величественную горную страну, расположенную на территории Пакистана. Здесь, в укромной пещере, скрытой от посторонних глаз, находится одно из убежищ снежного барса - самого редкого и самого красивого представителя семейства больших кошек. Вам предстоит незабываемое путешествие в эту неизведанную часть мира, чтобы воочию понаблюдать за этим грациозным животным. Каждый год снежные барсы возвращаются к этой пещере, чтобы растить здесь свое потомство. Вы сможете увидеть, как они охотятся, узнать об их повадках и особенностях. Этот фильм - попытка показать суровую красоту места, которое многие считают опасным и негостеприимным.- -Источник: -Качество: BDRip
Формат: AVI
Видео: 720x400 (16:9), 29,970 fps, XviD build 65, ~2350 kbps avg, 0.27 bit/pixel
Аудио: 48.0 kHz, AC3 Dolby Digital, 3/2 (L,C,R,l,r) + LFE ch, ~384.00 kbps avg

Список выпусков/серий

Эпизод 1: Львы пустыни / Desert Lions
Продолжительность: 00:49:23
Описание:
Намиб - древнейшая пустыня на земле. Безжалостная и непрощающая, постичь её нелегко. Изменчивые воды Берега скелетов закрывают доступ к пустыне по всей её длине. Неудивительно, что Намиб так хорошо хранит свои секреты. Когда-то здесь жили львы. Однако они были подобны призракам, их редко кто видел. Потом, более двадцати лет назад, они куда-то исчезли. И сегодня один человек решил бросить вызов пустыне. Им движет вера, что самые удивительные львы Африки постепенно возвращаются...-Эпизод 2: Снежный Барс - Мифы или реальность / Snow Leopard - Beyond the Myth
Продолжительность: 00:48:52
Описание:
Добро пожаловать в величественную горную страну, расположенную на территории Пакистана. Здесь, в укромной пещере, скрытой от посторонних глаз, находится одно из убежищ снежного барса - самого редкого и самого красивого представителя семейства больших кошек. Вам предстоит незабываемое путешествие в эту неизведанную часть мира, чтобы воочию понаблюдать за этим грациозным животным. Каждый год снежные барсы возвращаются к этой пещере, чтобы растить здесь свое потомство. Вы сможете увидеть, как они охотятся, узнать об их повадках и особенностях. Этот фильм - попытка показать суровую красоту места, которое многие считают опасным и негостеприимным.

MediaInfo

ОбщееПолное имя : A:\Планета Земля Львы пустыни & Снежные леопарды\Desert.Lions.2010.aviФормат : AVIФормат/Информация : Audio Video InterleaveРазмер файла : 966 МбайтПродолжительность : 49 м.Общий поток : 2745 Кбит/секПрограмма кодирования : VirtualDubMod 1.5.10.3 | www.virtualdub-fr.org || (build 2550/release)Библиотека кодирования : VirtualDubMod build 2550/release
ВидеоИдентификатор : 0Формат : MPEG-4 VisualПрофиль формата : Advanced Simple@L5Параметр BVOP формата : 2Параметр QPel формата : НетПараметр GMC формата : Без точки переходаПараметр матрицы формата : Default (H.263)Идентификатор кодека : XVIDИдентификатор кодека/Подсказка : XviDПродолжительность : 49 м.Битрейт : 2349 Кбит/секШирина : 720 пикселейВысота : 400 пикселейСоотношение сторон : 16:9Частота кадров : 29,970 кадров/секЦветовое пространство : YUVСубдискретизация насыщенности : 4:2:0Битовая глубина : 8 битТип развёртки : ПрогрессивнаяМетод сжатия : С потерямиБит/(Пиксели*Кадры) : 0.272Размер потока : 827 Мбайт (86%)Библиотека кодирования : XviD 65
АудиоИдентификатор : 1Формат : AC-3Формат/Информация : Audio Coding 3Расширение режима : CM (complete main)Параметр Endianness формата : BigИдентификатор кодека : 2000Продолжительность : 49 м.Вид битрейта : ПостоянныйБитрейт : 384 Кбит/секКаналы : 6 каналовРасположение каналов : Front: L C R, Side: L R, LFEЧастота : 48,0 КГцБитовая глубина : 16 битМетод сжатия : С потерямиРазмер потока : 135 Мбайт (14%)Выравнивание : Разделение по промежуткамПродолжительность промежутка : 33 мс. (1,00 видеокадр)Время предзагрузки промежутка : 500 мс.
ОбщееПолное имя : A:\Планета Земля Львы пустыни & Снежные леопарды\Snow.Leopards.2010.aviФормат : AVIФормат/Информация : Audio Video InterleaveРазмер файла : 959 МбайтПродолжительность : 48 м.Общий поток : 2745 Кбит/секПрограмма кодирования : VirtualDubMod 1.5.10.3 | www.virtualdub-fr.org || (build 2550/release)Библиотека кодирования : VirtualDubMod build 2550/release
ВидеоИдентификатор : 0Формат : MPEG-4 VisualПрофиль формата : Advanced Simple@L5Параметр BVOP формата : 2Параметр QPel формата : НетПараметр GMC формата : Без точки переходаПараметр матрицы формата : Default (H.263)Идентификатор кодека : XVIDИдентификатор кодека/Подсказка : XviDПродолжительность : 48 м.Битрейт : 2350 Кбит/секШирина : 720 пикселейВысота : 400 пикселейСоотношение сторон : 16:9Частота кадров : 29,970 кадров/секЦветовое пространство : YUVСубдискретизация насыщенности : 4:2:0Битовая глубина : 8 битТип развёртки : ПрогрессивнаяМетод сжатия : С потерямиБит/(Пиксели*Кадры) : 0.272Размер потока : 821 Мбайт (86%)Библиотека кодирования : XviD 65
АудиоИдентификатор : 1Формат : AC-3Формат/Информация : Audio Coding 3Расширение режима : CM (complete main)Параметр Endianness формата : BigИдентификатор кодека : 2000Продолжительность : 48 м.Вид битрейта : ПостоянныйБитрейт : 384 Кбит/секКаналы : 6 каналовРасположение каналов : Front: L C R, Side: L R, LFEЧастота : 48,0 КГцБитовая глубина : 16 битМетод сжатия : С потерямиРазмер потока : 134 Мбайт (14%)Выравнивание : Разделение по промежуткамПродолжительность промежутка : 33 мс. (1,00 видеокадр)Время предзагрузки промежутка : 500 мс.

Скриншоты




Показать сообщения:    

Текущее время: 18-Дек 01:27

Часовой пояс: UTC ± 0


Вы не можете начинать темы
Вы не можете отвечать на сообщения
Вы не можете редактировать свои сообщения
Вы не можете удалять свои сообщения
Вы не можете голосовать в опросах
Вы не можете прикреплять файлы к сообщениям
Вы не можете скачивать файлы

!ВНИМАНИЕ!
Сайт не предоставляет электронные версии произведений, а занимается лишь коллекционированием и каталогизацией ссылок, присылаемых и публикуемых на форуме нашими читателями. Если вы являетесь правообладателем какого-либо представленного материала и не желаете, чтобы ссылка на него находилась в нашем каталоге, свяжитесь с нами, и мы незамедлительно удалим ее. Файлы для обмена на трекере предоставлены пользователями сайта, и администрация не несет ответственности за их содержание. Просьба не заливать файлы, защищенные авторскими правами, а также файлы нелегального содержания!