Вверх / Up (Пит Доктер, Боб Питерсон / Pete Docter, Bob Peterson) [2009, мультфильм, драма, комедия, приключения, семейный, HDRip] Dub [локализованный видеоряд] :: Ивановский Торрент трекер
Важное объявление!
У Нас Все раздачи мультитрекерные, при нуле пиров в релизах, можете смело вставать на закачку!
Статистика раздачи
Размер:     |    Зарегистрирован:     |    Скачан:     |   
Нет
 
     
 
 
Автор Сообщение

HUNTER

Стаж:
4 года 11 месяцев
Сообщений:
66054

Репутация: 101

[+] [-]
Вне форума [Профиль] [ЛС]

Вверх / Up
Страна: США
Жанр: мультфильм, драма, комедия, приключения, семейный
Продолжительность: 01:36:32
Год выпуска: 2009
Перевод: Профессиональный (дублированный)
Русские субтитры: нет
Режиссёр: Пит Доктер, Боб Питерсон / Pete Docter, Bob Peterson
Роли озвучивали: Эдвард Эснер, Кристофер Пламмер, Джордан Нагаи, Боб Питерсон, Делрой Линдо, Джером Рэнфт, Джон Ратценбергер, Дэвид Кэй, Эли Доктер, Джереми Лири
Описание: 78-летний ворчун Карл Фредриксен считает, что жизнь обходит его стороной. Чтобы сдержать обещание, данное своей почившей жене, он решает осуществить свою мечту о великом приключении, привязав тысячи воздушных шариков к своему дому и улетев в дебри Южной Америки. Не пролетев и полмили, путешественник обнаруживает, что он ненароком прихватил с собой крайне разговорчивого и неисправимо жизнерадостного 8-летнего мальчика по имени Рассел...
Семпл: http://multi-up.com/984942
Качество: HDRip
Формат: AVI
Видео: XviD, 640x352 (1.82:1), 23.976 fps, 944 kbps
Аудио: MP3, 48 kHz, 2 ch, 128 kbps
Субтитры: отсутствуют
Подробные технические данные
Format : AVIFormat/Info : Audio Video InterleaveFile size : 746 MiBDuration : 1h 36mnOverall bit rate : 1 081 KbpsWriting application : VirtualDubMod 1.5.10.3 | www.virtualdub-fr.org || (build 2550/release)Writing library : VirtualDubMod build 2550/release
VideoID : 0Format : MPEG-4 VisualFormat profile : Advanced Simple@L5Format settings, BVOP : 2Format settings, QPel : NoFormat settings, GMC : No warppointsFormat settings, Matrix : Default (MPEG)Muxing mode : Packed bitstreamCodec ID : XVIDCodec ID/Hint : XviDDuration : 1h 36mnBit rate : 944 KbpsWidth : 640 pixelsHeight : 352 pixelsDisplay aspect ratio : 16:9Frame rate : 23.976 fpsColor space : YUVChroma subsampling : 4:2:0Bit depth : 8 bitsScan type : ProgressiveCompression mode : LossyBits/(Pixel*Frame) : 0.175Stream size : 652 MiB (87%)Writing library : XviD 1.2.1 (UTC 2008-12-04)
AudioID : 1Format : MPEG AudioFormat version : Version 1Format profile : Layer 3Codec ID : 55Codec ID/Hint : MP3Duration : 1h 36mnBit rate mode : ConstantBit rate : 128 KbpsChannel count : 2 channelsSampling rate : 48.0 KHzCompression mode : LossyStream size : 88.4 MiB (12%)Alignment : Aligned on interleavesInterleave, duration : 42 ms (1.00 video frame)Interleave, preload duration : 504 msWriting library : LAME3.99rEncoding settings : -m s -V 4 -q 2 -lowpass 17 -b 128
Скриншоты

_________________
Показать сообщения:    

Текущее время: Сегодня 05:13

Часовой пояс: GMT



Вы не можете начинать темы
Вы не можете отвечать на сообщения
Вы не можете редактировать свои сообщения
Вы не можете удалять свои сообщения
Вы не можете голосовать в опросах
Вы не можете прикреплять файлы к сообщениям
Вы не можете скачивать файлы